<?xml version="1.0" encoding="UTF-8"?>
<svg xmlns="http://www.w3.org/2000/svg" xmlns:xlink="http://www.w3.org/1999/xlink" version="1.2" >
<font id="Minion Pro">
<font-face  font-family="Minion Pro" units-per-em="1000" ascent="727" descent="-273" font-style="normal" font-weight="400" font-stretch="normal" cap-height="651" x-height="438" underline-position="-75" underline-thickness="50" />
<missing-glyph  horiz-adv-x="500" d="M0 0 L500 0 L500 700 L0 700 L0 0 Z M250 395 L80 650 L420 650 L250 395 Z M280 350 L450 605 L450 95 L280 350 Z M80 50 L250 305 L420 50 L80 50 Z M50 605 L220 350 L50 95 L50 605 Z " />
<glyph glyph-name="NULL" d="" />
<glyph glyph-name="CR" unicode="&#xd;" horiz-adv-x="250" d="" />
<glyph glyph-name="space" unicode="&#x20;" horiz-adv-x="227" d="" />
<glyph glyph-name="exclam" unicode="&#x21;" horiz-adv-x="276" d="M136 665 C100 665 82 657 82 635 C82 619 85 596 90 556 C103 441 109 325 119 197 C123 190 148 190 153 197 C162 325 169 441 182 556 C187 596 189 619 189 635 C189 657 172 665 137 665 L136 665 Z M137 -12 C170 -12 194 11 194 47 C194 80 170 105 137 105 C105 105 81 80 81 47 C81 11 105 -12 136 -12 L137 -12 Z " />
<glyph glyph-name="quotedbl" unicode="&#x22;" horiz-adv-x="318" d="M119 710 L42 683 C46 669 61 567 71 474 L99 486 C107 547 122 682 125 705 L119 710 Z M268 710 L191 683 C195 669 209 567 220 474 L248 486 C256 546 271 681 274 705 L268 710 Z " />
<glyph glyph-name="numbersign" unicode="&#x23;" horiz-adv-x="480" d="M448 452 L361 452 L394 608 L355 608 L322 452 L214 452 L248 608 L210 608 L176 452 L79 452 L70 394 L163 394 L134 259 L35 259 L24 201 L120 201 L82 27 L120 27 L158 201 L266 201 L229 27 L267 27 L305 201 L395 201 L404 259 L318 259 L348 394 L439 394 L448 452 Z M310 394 L280 259 L173 259 L202 394 L310 394 Z " />
<glyph glyph-name="dollar" unicode="&#x24;" horiz-adv-x="480" d="M264 362 L264 584 C343 572 363 522 380 464 L408 471 C399 525 392 561 387 595 C376 597 367 600 353 603 C329 611 296 616 264 616 L264 693 L229 693 L229 614 C122 602 67 531 67 453 C67 375 123 329 193 299 L229 284 L229 42 C132 53 93 131 75 189 L45 181 C54 130 66 71 73 50 C113 24 170 9 229 9 L229 -76 L264 -76 L264 11 C370 24 434 90 434 185 C434 275 367 325 293 351 L264 362 Z M229 376 C172 398 136 430 136 483 C136 530 165 578 229 584 L229 376 Z M264 272 L276 267 C345 236 359 197 359 150 C359 96 325 51 264 43 L264 272 Z " />
<glyph glyph-name="percent" unicode="&#x25;" horiz-adv-x="756" d="M594 629 L561 652 L159 -9 L190 -32 L594 629 Z M193 635 C92 635 49 534 49 453 C49 373 92 272 193 272 C295 272 338 373 338 453 C338 534 295 635 194 635 L193 635 Z M194 605 C257 605 265 503 265 453 C265 404 257 302 194 302 C133 302 122 402 122 453 C122 505 133 605 193 605 L194 605 Z M566 351 C465 351 421 251 421 170 C421 90 465 -12 566 -12 C667 -12 710 90 710 170 C710 251 667 351 567 351 L566 351 Z M567 322 C628 322 637 221 637 170 C637 121 628 18 567 18 C506 18 494 120 494 170 C494 223 506 322 566 322 L567 322 Z " />
<glyph glyph-name="ampersand" unicode="&#x26;" horiz-adv-x="711" d="M717 427 L488 427 L488 399 C559 390 569 378 549 331 C530 287 513 253 489 216 C425 282 354 343 321 371 C360 397 383 416 402 432 C423 450 444 479 444 520 C444 600 377 658 296 658 C208 658 132 589 132 500 C132 446 159 403 204 361 C119 300 54 260 54 167 C54 80 125 -14 251 -14 C323 -14 389 22 461 118 C494 84 536 37 548 23 C560 10 615 -13 670 -18 L677 -9 C647 49 556 150 514 191 C549 244 573 285 601 324 C634 373 647 391 717 399 L717 427 Z M286 624 C335 624 369 576 369 519 C369 465 342 426 295 391 C235 437 204 472 204 524 C204 584 239 624 285 624 L286 624 Z M277 54 C212 54 139 100 139 196 C139 245 164 292 230 339 C321 265 385 204 438 145 C405 99 345 54 278 54 L277 54 Z " />
<glyph glyph-name="quotesingle" unicode="&#x27;" horiz-adv-x="169" d="M119 710 L42 683 C46 669 61 568 71 474 L99 486 C107 548 122 682 125 705 L119 710 Z " />
<glyph glyph-name="parenleft" unicode="&#x28;" horiz-adv-x="346" d="M300 -147 C201 -63 143 98 143 270 C143 442 200 602 300 686 L282 710 C136 610 70 450 70 271 L70 270 C70 89 136 -72 282 -170 L300 -147 Z " />
<glyph glyph-name="parenright" unicode="&#x29;" horiz-adv-x="346" d="M275 270 C275 450 212 609 64 710 L45 686 C145 604 203 442 203 270 C203 98 147 -63 45 -147 L64 -170 C213 -68 275 89 275 269 L275 270 Z " />
<glyph glyph-name="asterisk" unicode="&#x2a;" horiz-adv-x="404" d="M364 493 L364 518 L231 520 L258 659 L234 665 L176 533 L55 613 L40 592 L144 490 L42 396 L56 374 L178 451 L248 321 L271 330 L232 468 L364 493 Z " />
<glyph glyph-name="plus" unicode="&#x2b;" horiz-adv-x="580" d="M529 230 L529 280 L320 280 L320 487 L262 487 L262 280 L52 280 L52 230 L262 230 L262 0 L320 0 L320 230 L529 230 Z " />
<glyph glyph-name="comma" unicode="&#x2c;" horiz-adv-x="228" d="M94 130 C70 130 46 113 46 88 C46 72 54 64 59 64 C93 55 121 33 121 -3 C121 -41 93 -68 44 -88 L55 -117 C117 -98 186 -56 186 22 C186 91 131 130 95 130 L94 130 Z " />
<glyph glyph-name="hyphen" unicode="&#x2d;" horiz-adv-x="356" d="M300 253 L71 253 L57 198 L286 198 L300 253 Z " />
<glyph glyph-name="period" unicode="&#x2e;" horiz-adv-x="228" d="M114 -12 C146 -12 170 11 170 46 C170 78 146 103 114 103 C82 103 58 78 58 46 C58 11 82 -12 113 -12 L114 -12 Z " />
<glyph glyph-name="slash" unicode="&#x2f;" horiz-adv-x="331" d="M298 665 L241 665 L25 -44 L81 -44 L298 665 Z " />
<glyph glyph-name="zero" unicode="0" horiz-adv-x="480" d="M240 635 C89 635 35 458 35 312 C35 154 89 -12 240 -12 C390 -12 443 166 443 312 C443 466 390 635 241 635 L240 635 Z M239 602 C329 602 354 454 354 312 C354 173 330 22 240 22 C152 22 124 174 124 313 C124 453 148 602 238 602 L239 602 Z " />
<glyph glyph-name="one" unicode="1" horiz-adv-x="480" d="M384 0 L384 27 C293 34 287 42 287 114 L287 635 C232 613 172 594 109 583 L109 559 L157 557 C201 555 205 550 205 499 L205 114 C205 42 199 34 109 27 L109 0 L384 0 Z " />
<glyph glyph-name="two" unicode="2" horiz-adv-x="480" d="M412 140 C382 77 369 73 315 73 L129 73 L270 222 C362 320 402 379 402 467 C402 571 322 635 234 635 C177 635 130 609 99 576 L42 495 L64 475 C90 514 133 568 201 568 C274 568 318 519 318 435 C318 349 255 268 193 193 C144 135 87 78 32 23 L32 0 L405 0 C417 45 427 89 440 131 L412 140 Z " />
<glyph glyph-name="three" unicode="3" horiz-adv-x="480" d="M285 378 C315 398 338 416 353 432 C373 451 384 474 384 503 C384 578 325 635 236 635 L235 635 C182 635 136 610 108 579 L65 516 L85 496 C110 533 150 575 205 575 C258 575 300 543 300 481 C300 407 232 369 141 339 L147 310 C163 315 188 321 211 321 C268 321 338 284 338 192 C338 94 288 40 217 40 C160 40 119 68 93 91 C85 98 77 97 69 91 C60 84 47 71 46 58 C44 46 48 35 62 22 C75 10 116 -12 162 -12 C234 -12 424 62 424 224 C424 297 373 359 285 376 L285 378 Z " />
<glyph glyph-name="four" unicode="4" horiz-adv-x="480" d="M456 178 L456 225 L360 225 L360 632 L320 632 C217 496 115 347 20 206 L20 178 L280 178 L280 106 C280 40 276 34 189 27 L189 0 L445 0 L445 27 C364 34 360 40 360 106 L360 178 L456 178 Z M280 225 L82 225 C149 335 214 431 278 520 L280 520 L280 225 Z " />
<glyph glyph-name="five" unicode="5" horiz-adv-x="480" d="M153 550 L386 550 L412 615 L406 623 L120 623 L82 318 C104 327 142 338 184 338 C294 338 347 275 347 187 C347 112 305 39 221 39 C160 39 119 71 97 89 C88 97 80 96 71 90 C59 80 50 67 49 57 C48 45 52 36 66 23 C80 9 123 -12 169 -12 C221 -11 288 15 342 59 C403 109 431 165 431 225 C431 308 366 395 238 395 C212 395 165 379 127 364 L153 550 Z " />
<glyph glyph-name="six" unicode="6" horiz-adv-x="480" d="M137 343 C167 482 260 545 321 574 C357 591 397 603 429 609 L423 641 C382 634 335 622 295 608 C189 570 37 457 37 238 C37 84 125 -12 242 -12 C362 -12 447 89 447 208 C447 311 374 393 267 393 C247 393 226 386 204 376 L137 343 Z M228 337 C318 337 361 256 361 172 C361 105 336 22 258 22 C176 22 126 120 126 240 C126 266 127 291 132 310 C155 323 189 337 227 337 L228 337 Z " />
<glyph glyph-name="seven" unicode="7" horiz-adv-x="480" d="M447 623 L65 623 C61 580 56 530 47 474 L76 474 C100 541 106 550 172 550 L388 550 C308 376 196 169 91 -1 L98 -12 L172 -2 C268 204 360 408 455 611 L447 623 Z " />
<glyph glyph-name="eight" unicode="8" horiz-adv-x="480" d="M248 635 C141 635 70 555 70 471 C70 401 114 353 179 316 C143 294 106 267 90 252 C68 231 45 202 45 157 C45 50 130 -12 237 -12 C322 -12 435 52 435 169 C435 256 372 304 303 343 C349 374 375 398 383 407 C401 429 411 458 411 487 C411 569 344 635 249 635 L248 635 Z M239 603 C285 603 337 567 337 482 C337 422 310 385 276 358 C205 393 145 426 145 500 C145 552 179 603 238 603 L239 603 Z M247 20 C183 20 125 70 125 163 C125 218 158 268 206 300 C284 261 355 217 355 143 C355 66 308 20 248 20 L247 20 Z " />
<glyph glyph-name="nine" unicode="9" horiz-adv-x="480" d="M243 635 C114 635 38 519 38 422 C38 317 111 240 217 240 C236 240 255 244 277 256 L345 292 C311 140 203 39 59 15 L64 -15 C89 -15 150 -5 204 17 C339 72 440 202 440 386 C440 521 368 635 244 635 L243 635 Z M229 602 C326 602 352 479 352 390 C352 370 351 347 348 324 C327 308 293 296 258 296 C174 296 124 369 124 458 C124 517 152 602 228 602 L229 602 Z " />
<glyph glyph-name="colon" unicode="&#x3a;" horiz-adv-x="228" d="M115 412 C83 412 59 388 59 355 C59 321 83 297 115 297 C147 297 170 321 170 355 C170 388 147 412 116 412 L115 412 Z M115 -12 C147 -12 171 11 171 46 C171 78 147 103 115 103 C84 103 60 78 60 46 C60 11 84 -12 114 -12 L115 -12 Z " />
<glyph glyph-name="semicolon" unicode="&#x3b;" horiz-adv-x="228" d="M113 412 C81 412 58 388 58 355 C58 321 81 297 113 297 C145 297 169 321 169 355 C169 388 145 412 114 412 L113 412 Z M94 130 C70 130 46 114 46 88 C46 72 54 65 59 64 C93 56 121 33 121 -3 C121 -41 93 -68 45 -88 L56 -118 C117 -99 186 -56 186 22 C186 91 131 130 95 130 L94 130 Z " />
<glyph glyph-name="less" unicode="&#x3c;" horiz-adv-x="552" d="M492 0 L492 56 L119 252 L119 254 L492 451 L492 507 L60 277 L60 230 L492 0 Z " />
<glyph glyph-name="equal" unicode="&#x3d;" horiz-adv-x="580" d="M529 321 L529 371 L52 371 L52 321 L529 321 Z M529 138 L529 188 L52 188 L52 138 L529 138 Z " />
<glyph glyph-name="greater" unicode="&#x3e;" horiz-adv-x="552" d="M492 230 L492 277 L60 507 L60 451 L434 254 L434 252 L60 56 L60 0 L492 230 Z " />
<glyph glyph-name="question" unicode="&#x3f;" horiz-adv-x="379" d="M219 216 C189 242 172 263 172 297 C172 345 252 390 284 417 C318 445 332 470 332 505 C332 587 255 665 171 665 L170 665 C154 665 110 654 79 627 C64 615 58 605 58 591 C58 567 86 547 99 547 C110 547 150 601 213 601 C250 601 273 581 273 546 C273 504 211 463 174 435 C111 387 90 357 90 323 C90 262 163 207 201 193 L219 216 Z M185 -12 C216 -12 240 11 240 46 C240 78 216 103 185 103 C154 103 130 78 130 46 C130 11 154 -12 184 -12 L185 -12 Z " />
<glyph glyph-name="at" unicode="&#x40;" horiz-adv-x="753" d="M545 -14 C518 -29 444 -52 385 -52 C186 -52 116 86 116 218 C116 404 241 540 428 540 C565 540 665 460 665 322 C665 187 587 118 519 116 C494 115 490 128 500 181 C515 263 532 343 548 408 C538 408 528 409 514 412 C501 415 479 420 464 420 C402 419 348 388 303 346 C245 290 223 213 223 158 C223 100 247 74 271 74 C317 74 408 155 441 204 L443 203 L432 145 C424 104 424 74 477 74 C611 74 713 186 713 322 C713 459 612 579 433 579 C241 579 53 442 52 208 C52 5 195 -97 352 -97 C421 -97 486 -83 556 -42 L545 -14 Z M423 380 C442 380 464 375 477 369 C472 339 462 291 452 258 C392 175 338 138 320 138 C308 138 299 147 299 183 C299 247 328 318 357 350 C374 368 396 380 422 380 L423 380 Z " />
<glyph glyph-name="A" unicode="A" horiz-adv-x="691" d="M673 0 L673 28 C608 35 594 44 563 130 C499 303 432 494 370 665 L339 656 L132 132 C98 43 84 37 20 28 L20 0 L238 0 L238 28 C162 36 154 45 175 109 C188 150 203 192 219 237 L432 237 C454 176 474 122 487 83 C500 44 491 36 428 28 L428 0 L673 0 Z M418 280 L234 280 C265 362 296 450 328 535 L330 535 L418 280 Z " />
<glyph glyph-name="B" unicode="B" horiz-adv-x="588" d="M372 352 C427 368 507 407 507 502 C507 548 486 592 451 616 C420 638 376 650 301 650 L44 650 L44 622 C124 616 128 610 128 527 L128 123 C128 40 122 34 36 28 L36 0 L257 0 C336 0 402 12 453 40 C512 72 548 124 548 191 C548 291 471 335 372 350 L372 352 Z M213 362 L213 558 C213 591 216 602 226 608 C235 614 258 618 282 618 C377 618 415 558 415 490 C415 406 369 362 260 362 L213 362 Z M213 328 L258 328 C380 328 450 283 450 181 C450 76 377 34 296 34 C231 33 213 53 213 125 L213 328 Z " />
<glyph glyph-name="C" unicode="C" horiz-adv-x="665" d="M614 175 C564 76 510 21 408 21 C256 21 146 149 146 336 C146 488 235 629 402 629 C510 629 570 586 597 480 L626 487 C620 541 614 582 606 638 C578 643 510 665 429 665 C206 665 44 527 44 316 C44 157 153 -15 402 -15 C474 -15 558 5 586 11 C604 45 629 119 643 165 L614 175 Z " />
<glyph glyph-name="D" unicode="D" horiz-adv-x="735" d="M43 650 L43 622 C120 616 128 612 128 526 L128 124 C128 39 120 33 34 27 L34 0 L270 0 C392 0 492 25 567 83 C643 141 690 230 690 350 C690 444 655 517 605 565 C543 625 450 650 323 650 L43 650 Z M213 547 C213 587 217 598 226 604 C236 612 262 617 304 617 C371 617 429 604 474 576 C554 529 592 439 592 336 C592 176 505 36 319 36 C246 36 213 55 213 131 L213 547 Z " />
<glyph glyph-name="E" unicode="E" horiz-adv-x="568" d="M517 162 C503 122 484 88 467 68 C445 42 417 34 341 34 C291 34 256 34 237 47 C219 59 213 81 213 128 L213 317 L308 317 C395 317 402 311 415 240 L444 240 L444 431 L415 431 C403 364 398 356 307 356 L213 356 L213 584 C213 613 215 616 246 616 L322 616 C394 616 421 609 435 587 C448 566 458 544 467 502 L496 506 C493 558 488 626 488 650 L42 650 L42 623 C120 616 128 612 128 523 L128 125 C128 43 120 35 29 28 L29 0 L511 0 C520 31 540 125 546 158 L517 162 Z " />
<glyph glyph-name="F" unicode="F" horiz-adv-x="529" d="M493 503 C489 551 484 614 483 650 L43 650 L43 622 C120 616 128 612 128 525 L128 126 C128 40 120 34 40 28 L40 0 L312 0 L312 28 C221 34 213 40 213 126 L213 307 L316 307 C407 307 412 296 424 227 L453 227 L453 420 L424 420 C412 355 407 346 316 346 L213 346 L213 584 C213 613 216 616 246 616 L322 616 C398 616 419 608 436 580 C449 559 455 539 464 500 L493 503 Z " />
<glyph glyph-name="G" unicode="G" horiz-adv-x="715" d="M692 302 L438 302 L438 274 C537 266 543 260 543 188 L543 103 C543 61 531 48 511 37 C489 26 458 20 424 20 C231 20 146 188 146 333 C146 517 258 630 411 630 C507 630 582 597 606 474 L634 480 C627 546 622 601 619 636 C586 644 510 665 426 665 C230 665 44 552 44 321 C44 122 191 -15 411 -15 C491 -15 573 7 635 21 C629 49 628 81 628 116 L628 202 C628 260 632 266 692 274 L692 302 Z " />
<glyph glyph-name="H" unicode="H" horiz-adv-x="766" d="M729 650 L468 650 L468 622 C546 615 554 610 554 527 L554 365 L213 365 L213 527 C213 610 221 616 297 622 L297 650 L38 650 L38 622 C120 616 128 611 128 527 L128 123 C128 39 120 34 40 28 L40 0 L303 0 L303 28 C221 34 213 40 213 123 L213 322 L554 322 L554 123 C554 39 546 34 460 28 L460 0 L728 0 L728 28 C647 34 639 39 639 123 L639 527 C639 610 647 615 729 622 L729 650 Z " />
<glyph glyph-name="I" unicode="I" horiz-adv-x="341" d="M303 0 L303 28 C221 34 213 39 213 125 L213 525 C213 610 221 616 303 622 L303 650 L38 650 L38 622 C120 616 128 610 128 525 L128 125 C128 40 120 34 38 28 L38 0 L303 0 Z " />
<glyph glyph-name="J" unicode="J" horiz-adv-x="329" d="M303 650 L44 650 L44 622 C125 616 133 609 133 525 L133 184 C133 100 131 42 123 -6 C112 -63 83 -109 27 -137 L39 -165 C65 -157 98 -138 132 -107 C198 -46 218 23 218 151 L218 525 C218 609 226 616 303 622 L303 650 Z " />
<glyph glyph-name="K" unicode="K" horiz-adv-x="673" d="M667 0 L667 28 C619 34 599 43 546 100 C496 154 386 277 311 372 C378 440 449 512 488 547 C551 605 575 615 650 622 L650 650 L410 650 L410 622 L433 619 C478 614 479 604 449 568 C404 513 337 443 282 390 C254 364 234 350 212 345 L212 520 C212 609 222 616 299 622 L299 650 L41 650 L41 622 C120 616 128 611 128 520 L128 129 C128 41 120 34 44 28 L44 0 L304 0 L304 28 C221 34 212 41 212 129 L212 318 C229 321 242 318 266 291 C355 185 436 87 514 0 L667 0 Z " />
<glyph glyph-name="L" unicode="L" horiz-adv-x="538" d="M495 163 C480 117 462 85 444 65 C421 39 387 34 332 34 C290 34 256 36 236 47 C218 57 213 77 213 131 L213 526 C213 611 222 616 301 622 L301 650 L40 650 L40 622 C122 616 128 611 128 526 L128 126 C128 41 120 34 36 28 L36 0 L489 0 C498 31 519 126 525 157 L495 163 Z " />
<glyph glyph-name="M" unicode="M" horiz-adv-x="891" d="M861 0 L861 27 C774 35 771 41 768 147 L758 509 C755 612 762 614 850 622 L850 650 L680 650 L448 149 L221 650 L57 650 L57 622 C148 613 153 609 144 479 L130 271 C123 166 117 123 111 88 C104 46 85 34 26 28 L26 0 L259 0 L259 28 C192 35 169 42 167 90 C166 130 166 173 170 256 L184 541 L186 541 L410 6 L431 6 L675 555 L678 555 L682 147 C682 41 679 35 597 27 L597 0 L861 0 Z " />
<glyph glyph-name="N" unicode="N" horiz-adv-x="743" d="M719 650 L483 650 L483 622 C553 618 576 605 581 560 C585 532 588 486 588 394 L588 149 L585 149 L167 650 L20 650 L20 622 C67 618 88 610 109 585 C127 561 129 557 129 484 L129 264 C129 173 126 124 123 93 C118 44 92 32 35 28 L35 0 L272 0 L272 28 C204 32 181 44 176 95 C173 124 170 172 170 264 L170 515 L172 515 L598 -9 L629 -9 L629 394 C629 487 631 532 635 563 C639 606 663 619 719 622 L719 650 Z " />
<glyph glyph-name="O" unicode="O" horiz-adv-x="747" d="M380 665 C170 665 44 498 44 318 C44 125 188 -15 369 -15 C552 -15 703 117 703 333 C703 533 550 665 381 665 L380 665 Z M360 629 C491 629 601 517 601 306 C601 114 502 21 390 21 C249 21 146 158 146 346 C146 534 248 629 359 629 L360 629 Z " />
<glyph glyph-name="P" unicode="P" horiz-adv-x="563" d="M46 650 L46 622 C120 617 128 613 128 525 L128 125 C128 42 120 34 40 28 L40 0 L311 0 L311 28 C221 34 212 39 212 124 L212 281 L286 262 C297 261 316 261 331 263 C429 275 526 338 526 468 C526 533 501 579 462 609 C422 638 364 650 293 650 L46 650 Z M212 559 C212 588 215 600 223 606 C230 613 251 618 279 618 C361 618 430 572 430 464 C430 337 350 302 285 302 C252 302 225 309 212 314 L212 559 Z " />
<glyph glyph-name="Q" unicode="Q" horiz-adv-x="745" d="M720 -138 C627 -96 538 -41 476 2 C594 39 703 153 703 331 C703 532 552 665 384 665 C170 665 44 500 44 315 C44 215 87 129 147 73 C211 11 298 -11 355 -14 C476 -99 554 -136 584 -144 C614 -152 664 -160 712 -159 L720 -138 Z M348 25 C231 49 146 172 146 342 C146 533 249 629 360 629 C497 629 601 510 601 302 C601 142 523 51 443 28 C434 34 425 41 416 47 L348 25 Z " />
<glyph glyph-name="R" unicode="R" horiz-adv-x="621" d="M631 18 C609 24 585 35 559 65 C534 91 514 117 478 169 C448 214 406 281 389 313 C462 346 516 399 516 485 C516 545 490 590 449 616 C412 641 363 650 290 650 L42 650 L42 622 C120 615 128 612 128 526 L128 125 C128 40 120 34 38 28 L38 0 L300 0 L300 28 C221 34 212 41 212 125 L212 284 L244 284 C295 284 312 272 329 244 C359 195 395 133 430 84 C475 19 516 -3 592 -7 C603 -8 615 -8 627 -8 L631 18 Z M212 316 L212 563 C212 590 215 602 223 607 C231 613 248 617 277 617 C352 617 423 577 423 469 C423 414 407 375 368 345 C343 324 310 316 260 316 L212 316 Z " />
<glyph glyph-name="S" unicode="S" horiz-adv-x="474" d="M409 504 C401 567 396 606 392 642 C354 654 312 665 266 665 C137 665 60 583 60 487 C60 374 161 325 225 290 C300 250 355 215 355 141 C355 68 311 21 235 21 C131 21 86 122 71 183 L41 176 C48 128 61 42 68 21 C78 16 93 9 118 0 C142 -7 175 -15 216 -15 C349 -15 438 69 438 174 C438 287 344 333 265 374 C186 414 138 449 138 522 C138 576 172 631 249 631 C336 631 363 562 380 499 L409 504 Z " />
<glyph glyph-name="T" unicode="T" horiz-adv-x="617" d="M592 498 C586 556 582 630 581 675 L560 675 C545 656 537 650 510 650 L115 650 C87 650 74 652 60 675 L40 675 C38 621 33 556 28 495 L57 495 C69 539 77 568 89 585 C102 608 122 616 205 616 L267 616 L267 123 C267 44 259 34 168 28 L168 0 L454 0 L454 28 C360 34 352 45 352 123 L352 616 L422 616 C498 616 514 608 531 585 C542 568 552 543 562 495 L592 498 Z " />
<glyph glyph-name="U" unicode="U" horiz-adv-x="736" d="M716 650 L478 650 L478 622 C549 617 570 605 575 566 C579 535 582 493 582 401 L582 326 C582 161 537 40 393 40 C269 40 205 132 205 294 L205 521 C205 611 213 617 291 622 L291 650 L33 650 L33 622 C111 615 120 611 120 521 L120 272 C120 154 148 79 208 33 C252 0 309 -14 368 -14 C434 -14 501 7 548 55 C605 115 623 201 623 319 L623 400 C623 493 626 536 629 563 C633 605 656 618 716 622 L716 650 Z " />
<glyph glyph-name="V" unicode="V" horiz-adv-x="703" d="M687 650 L462 650 L462 622 C543 612 549 604 530 547 C498 447 422 252 372 126 L370 126 C302 298 229 492 204 563 C188 607 191 615 262 622 L262 650 L17 650 L17 622 C77 616 93 608 122 534 C180 389 262 172 329 -11 L360 -11 C436 196 541 450 568 516 C606 605 619 614 687 622 L687 650 Z " />
<glyph glyph-name="W" unicode="W" horiz-adv-x="971" d="M956 650 L736 650 L736 622 C814 613 818 602 804 542 C789 471 733 275 691 141 L689 141 C628 314 570 476 514 641 L485 641 C434 478 377 312 323 142 L321 142 C277 284 238 419 199 554 C184 605 186 613 259 622 L259 650 L16 650 L16 622 C77 615 92 606 117 524 C172 346 228 170 281 -11 L312 -11 C363 151 419 311 475 488 L477 488 C528 343 597 150 652 -11 L683 -11 C765 269 826 458 848 522 C878 605 887 613 956 622 L956 650 Z " />
<glyph glyph-name="X" unicode="X" horiz-adv-x="654" d="M655 0 L655 28 C585 35 563 50 517 120 C469 194 414 280 360 366 C427 469 460 516 481 545 C526 604 545 614 619 622 L619 650 L391 650 L391 622 C457 614 462 604 438 560 C411 511 381 463 339 398 C295 466 258 523 225 580 C210 606 211 615 272 622 L272 650 L26 650 L26 622 C98 614 111 603 154 538 C189 482 235 408 288 324 C200 188 149 116 124 85 C95 47 64 34 7 28 L7 0 L236 0 L236 28 C169 36 164 46 188 89 C220 148 261 217 310 291 C372 193 417 118 442 77 C461 44 454 35 392 28 L392 0 L655 0 Z " />
<glyph glyph-name="Y" unicode="Y" horiz-adv-x="634" d="M620 650 L399 650 L399 622 C477 614 480 606 457 556 C429 495 375 397 339 331 C295 406 246 488 203 568 C185 601 182 613 254 622 L254 650 L15 650 L15 622 C75 617 86 606 126 537 C180 445 217 379 252 318 C269 287 273 278 273 258 L273 125 C273 41 265 34 175 28 L175 0 L458 0 L458 28 C366 34 358 41 358 125 L358 261 C358 287 361 298 375 324 C422 412 456 470 501 543 C539 604 551 614 620 622 L620 650 Z " />
<glyph glyph-name="Z" unicode="Z" horiz-adv-x="603" d="M561 176 C543 127 527 95 506 73 C478 43 441 36 316 36 C247 36 185 38 153 42 C290 245 427 439 566 636 L559 650 L160 650 C130 650 119 652 107 675 L83 675 C81 630 76 555 71 492 L100 491 C112 535 123 560 135 578 C152 605 168 614 276 614 L449 614 C310 411 169 213 29 15 L37 0 L554 0 C565 41 583 134 590 170 L561 176 Z " />
<glyph glyph-name="bracketleft" unicode="&#x5b;" horiz-adv-x="345" d="M290 -163 L290 -135 C183 -126 181 -122 181 -44 L181 583 C181 662 184 666 290 675 L290 703 L120 703 L120 -163 L290 -163 Z " />
<glyph glyph-name="backslash" unicode="&#x5c;" horiz-adv-x="333" d="M299 -44 L92 665 L36 665 L242 -44 L299 -44 Z " />
<glyph glyph-name="bracketright" unicode="&#x5d;" horiz-adv-x="345" d="M226 -163 L226 703 L56 703 L56 676 C162 667 165 662 165 584 L165 -43 C165 -122 162 -126 56 -136 L56 -163 L226 -163 Z " />
<glyph glyph-name="asciicircum" unicode="&#x5e;" horiz-adv-x="566" d="M496 211 L304 623 L261 623 L70 211 L125 211 L282 557 L437 211 L496 211 Z " />
<glyph glyph-name="underscore" unicode="&#x5f;" horiz-adv-x="500" d="M500 -125 L500 -75 L0 -75 L0 -125 L500 -125 Z " />
<glyph glyph-name="grave" unicode="&#x60;" horiz-adv-x="400" d="M247 496 C227 547 198 619 180 664 C165 666 115 656 106 651 L103 643 C130 607 177 542 220 482 L247 496 Z " />
<glyph glyph-name="a" unicode="a" horiz-adv-x="439" d="M433 39 L423 65 C413 59 399 53 387 53 C370 53 352 68 352 113 L352 298 C352 351 342 391 307 421 C285 439 255 448 225 448 C168 435 104 398 76 378 C57 364 45 353 45 338 C45 315 70 296 88 296 C102 296 112 303 117 319 C126 349 134 371 147 384 C157 396 172 403 191 403 C242 403 275 363 275 290 L275 273 C253 255 180 228 120 208 C65 189 39 158 39 110 C39 47 88 -12 159 -12 C189 -12 237 25 277 52 C282 34 288 20 301 7 C312 -3 333 -12 348 -12 L433 39 Z M275 84 C256 65 221 48 195 48 C164 48 124 72 124 124 C124 161 146 179 185 197 C206 207 254 228 275 239 L275 84 Z " />
<glyph glyph-name="b" unicode="b" horiz-adv-x="508" d="M152 403 L152 712 C115 698 54 683 7 677 L7 653 C71 648 73 641 73 579 L73 24 C128 -2 179 -12 220 -12 C353 -12 471 92 471 238 C471 356 381 448 274 448 C262 448 249 445 233 438 L152 403 Z M152 373 C170 384 202 392 230 392 C313 392 382 326 382 212 C382 97 330 26 246 26 C194 26 165 61 158 81 C154 91 152 101 152 116 L152 373 Z " />
<glyph glyph-name="c" unicode="c" horiz-adv-x="423" d="M390 111 C344 68 312 56 269 56 C212 56 118 102 118 240 C118 345 175 400 241 400 C277 400 312 387 342 359 C350 351 355 348 361 348 C372 348 394 370 394 391 C394 402 391 411 378 421 C362 435 329 448 288 448 L287 448 C250 448 190 431 138 391 C71 340 37 273 37 196 C37 89 112 -12 238 -12 C297 -12 363 32 407 90 L390 111 Z " />
<glyph glyph-name="d" unicode="d" horiz-adv-x="528" d="M517 51 L485 54 C448 58 441 64 441 115 L441 712 C404 700 337 684 285 678 L285 653 C357 648 362 645 362 579 L362 436 C339 445 309 448 295 448 C159 448 38 339 38 201 C38 62 143 -12 223 -12 C234 -12 261 -6 301 17 L362 53 L362 -12 C420 9 495 22 517 26 L517 51 Z M362 85 C338 67 301 51 266 51 C201 51 128 109 128 228 C128 372 212 410 259 410 C296 410 338 394 362 359 L362 85 Z " />
<glyph glyph-name="e" unicode="e" horiz-adv-x="425" d="M380 106 C343 72 306 56 265 56 C195 56 116 112 115 248 C235 252 361 262 377 265 C396 269 400 277 400 297 C400 374 333 448 250 448 L249 448 C198 448 144 420 103 375 C62 331 37 269 37 201 C37 88 109 -12 232 -12 C263 -12 332 6 395 84 L380 106 Z M226 411 C281 411 315 363 314 311 C314 297 308 292 290 292 C232 290 176 289 120 289 C135 369 180 411 225 411 L226 411 Z " />
<glyph glyph-name="f" unicode="f" horiz-adv-x="296" d="M54 436 L27 407 L31 396 L101 396 L101 103 C101 38 94 32 30 26 L30 0 L266 0 L266 25 C187 33 180 36 180 109 L180 396 L288 396 C299 403 304 427 298 436 L180 436 L180 476 C179 562 190 610 203 630 C214 647 230 659 256 659 C289 659 318 641 337 622 C346 612 355 612 364 619 C374 627 380 635 383 643 C388 655 387 668 378 679 C362 697 333 711 299 712 C260 707 225 689 189 659 C135 612 119 562 112 541 C105 519 101 489 101 457 L101 436 L54 436 Z " />
<glyph glyph-name="g" unicode="g" horiz-adv-x="468" d="M463 436 C426 430 375 424 327 422 C297 438 264 448 231 448 L230 448 C153 448 51 395 51 282 C51 214 94 168 139 149 C123 129 91 103 51 88 C50 78 53 60 62 46 C75 25 100 2 136 -9 C112 -28 73 -59 53 -79 C38 -94 29 -113 29 -135 C30 -192 91 -257 203 -257 C336 -257 452 -160 452 -59 C452 39 371 59 309 59 C275 59 240 58 203 58 C158 58 140 77 140 96 C140 110 157 129 170 138 C186 135 205 133 221 133 C306 133 396 185 396 292 C396 327 384 359 366 381 L423 378 C439 386 459 412 468 428 L463 436 Z M220 417 C277 417 314 361 314 283 C314 204 275 166 231 165 C176 165 137 220 137 298 C137 375 177 417 219 417 L220 417 Z M242 -11 C285 -11 314 -14 339 -24 C367 -35 384 -61 384 -95 C384 -157 335 -206 240 -206 C166 -206 108 -165 108 -110 C108 -82 128 -54 154 -32 C172 -17 195 -11 241 -11 L242 -11 Z " />
<glyph glyph-name="h" unicode="h" horiz-adv-x="534" d="M513 0 L513 26 C455 31 447 37 447 103 L447 278 C447 397 390 448 309 448 C255 448 202 411 166 375 L166 712 C127 700 67 684 19 677 L19 653 C85 647 87 643 87 580 L87 103 C87 37 79 31 19 26 L18 0 L231 0 L231 26 C171 32 166 39 166 103 L166 340 C194 372 232 391 270 391 C337 391 368 350 368 268 L368 103 C368 38 360 32 302 26 L302 0 L513 0 Z " />
<glyph glyph-name="i" unicode="i" horiz-adv-x="268" d="M135 651 C109 651 85 628 85 598 C85 572 109 548 135 548 C164 548 186 572 186 599 C186 628 164 651 136 651 L135 651 Z M252 0 L252 26 C188 32 181 38 181 106 L181 450 C138 432 90 419 39 411 L39 387 C99 378 102 373 102 312 L102 106 C102 38 95 32 32 26 L32 0 L252 0 Z " />
<glyph glyph-name="j" unicode="j" horiz-adv-x="256" d="M135 651 C108 651 85 629 85 599 C85 572 108 548 135 548 C163 548 185 572 185 599 C185 629 163 651 136 651 L135 651 Z M34 388 C96 379 101 375 101 308 L101 113 C101 22 99 -38 93 -80 C87 -115 80 -137 68 -152 C54 -170 28 -182 -5 -190 C-19 -193 -26 -201 -26 -213 C-26 -237 -3 -257 10 -257 C18 -257 26 -254 36 -246 C59 -226 122 -150 157 -50 C176 3 180 45 180 111 L180 450 C137 432 86 419 34 411 L34 388 Z " />
<glyph glyph-name="k" unicode="k" horiz-adv-x="496" d="M510 0 L510 26 C472 28 451 44 414 81 C381 114 283 229 258 264 C302 314 319 333 344 359 C383 396 404 406 473 417 L473 442 L269 433 L269 407 C317 402 320 394 299 363 C280 336 250 297 228 275 C213 259 195 247 165 241 L165 712 C126 699 69 682 21 677 L21 653 C82 648 87 642 87 576 L87 104 C87 40 81 32 14 26 L14 0 L237 0 L237 26 C173 32 165 38 165 104 L165 215 C171 217 177 218 181 217 C190 218 198 212 212 196 C268 129 331 49 378 -1 L510 0 Z " />
<glyph glyph-name="l" unicode="l" horiz-adv-x="253" d="M238 0 L238 26 C174 32 166 38 166 104 L166 712 C132 700 70 683 18 677 L18 653 C81 647 87 645 87 577 L87 104 C87 38 78 32 15 26 L15 0 L238 0 Z " />
<glyph glyph-name="m" unicode="m" horiz-adv-x="819" d="M796 0 L796 26 C738 32 731 36 731 103 L731 295 C731 393 681 448 604 448 C575 448 550 436 528 422 C504 407 475 388 446 366 C425 417 382 448 334 448 C303 448 279 436 253 420 C222 402 201 384 180 370 L180 451 C135 431 85 418 41 410 L41 387 C99 378 102 373 102 309 L102 103 C102 38 93 32 27 26 L27 0 L238 0 L238 26 C189 32 180 38 180 103 L180 337 C210 362 250 389 289 389 C351 389 377 348 377 274 L377 103 C377 37 368 32 306 26 L306 0 L520 0 L520 26 C465 32 456 38 456 101 L456 295 C456 314 455 325 453 337 C491 368 528 389 564 389 C627 389 652 344 652 273 L652 107 C652 37 641 32 583 26 L583 0 L796 0 Z " />
<glyph glyph-name="n" unicode="n" horiz-adv-x="547" d="M524 0 L524 26 C466 32 460 36 460 104 L460 297 C460 393 411 448 331 448 C302 448 276 436 248 418 C223 401 201 386 181 371 L181 451 C137 431 90 419 42 410 L42 387 C96 377 102 374 102 310 L102 104 C102 38 97 33 29 26 L29 0 L246 0 L246 26 C187 32 181 36 181 104 L181 338 C211 364 250 389 290 389 C357 389 381 344 381 275 L381 109 C381 40 374 32 315 26 L315 0 L524 0 Z " />
<glyph glyph-name="o" unicode="o" horiz-adv-x="510" d="M256 448 C165 448 37 373 37 208 C37 98 119 -12 256 -12 C355 -12 473 64 473 225 C473 348 381 448 257 448 L256 448 Z M245 415 C333 415 380 320 380 204 C380 66 329 21 267 21 C184 21 130 114 130 240 C130 353 184 415 244 415 L245 415 Z " />
<glyph glyph-name="p" unicode="p" horiz-adv-x="524" d="M169 380 L169 459 C122 440 66 423 24 416 L24 392 C86 384 90 382 90 317 L90 -135 C90 -201 81 -207 17 -213 L17 -240 L253 -240 L253 -213 C176 -206 169 -201 169 -125 L169 6 C182 -1 208 -11 238 -12 C368 12 487 109 487 260 C487 357 421 448 310 448 C298 448 279 443 261 432 L169 380 Z M169 345 C196 366 237 388 269 388 C341 388 403 328 403 221 C403 109 347 37 263 37 C228 37 191 53 169 75 L169 345 Z " />
<glyph glyph-name="q" unicode="q" horiz-adv-x="511" d="M515 -240 L515 -213 C445 -206 438 -202 438 -132 L438 331 C438 398 440 417 441 438 L437 441 C421 433 408 430 402 429 C394 429 389 430 375 434 C363 439 342 444 306 448 C168 449 38 340 38 197 C38 100 108 -12 253 -12 L359 30 L359 -130 C359 -201 353 -207 274 -213 L274 -240 L515 -240 Z M359 61 C340 51 316 44 285 44 C211 44 128 109 128 230 C128 347 194 407 262 407 C294 407 336 391 359 365 L359 61 Z " />
<glyph glyph-name="r" unicode="r" horiz-adv-x="371" d="M181 342 L181 450 C133 430 89 418 40 410 L40 387 C98 380 102 376 102 310 L102 103 C102 38 95 32 33 26 L33 0 L263 0 L263 26 C186 32 181 38 181 104 L181 286 C203 342 235 371 261 371 C277 371 289 365 304 351 C310 345 318 344 330 349 C349 358 362 378 362 398 C362 421 338 448 304 448 C256 448 213 392 183 342 L181 342 Z " />
<glyph glyph-name="s" unicode="s" horiz-adv-x="367" d="M319 324 C317 349 306 408 297 430 C277 439 250 448 209 448 C117 448 57 388 57 318 C57 242 122 209 182 181 C232 158 261 135 261 91 C261 48 227 21 190 21 C130 21 85 79 68 144 L41 140 C41 104 51 36 58 22 C75 7 121 -12 172 -12 C252 -12 337 35 337 126 C337 195 286 230 210 261 C166 280 126 303 126 347 C126 387 152 416 191 416 C240 416 274 377 294 317 L319 324 Z " />
<glyph glyph-name="t" unicode="t" horiz-adv-x="305" d="M298 36 L289 61 C276 54 253 45 228 45 C202 45 169 60 169 140 L169 396 L276 396 C289 404 292 425 282 436 L169 436 L169 573 L155 575 L90 508 L90 436 L45 436 L17 407 L21 396 L90 396 L90 106 C90 27 125 -12 188 -12 C198 -12 213 -8 230 1 L298 36 Z " />
<glyph glyph-name="u" unicode="u" horiz-adv-x="531" d="M518 50 L491 51 C452 54 444 60 444 110 L444 443 C429 440 405 436 377 433 C348 431 314 428 287 427 L287 403 L323 397 C356 392 365 386 365 333 L365 99 C331 66 293 51 257 51 C212 51 169 75 169 164 L169 299 C169 365 169 412 172 443 C156 440 128 436 101 432 C75 430 50 428 29 427 L29 403 L57 397 C82 392 90 386 90 333 L90 137 C90 29 147 -12 214 -12 C241 -12 262 -4 291 13 C320 30 342 48 365 66 L365 -6 L371 -12 C390 -6 415 1 441 8 C468 15 496 21 518 24 L518 50 Z " />
<glyph glyph-name="v" unicode="v" horiz-adv-x="463" d="M478 436 L300 436 L300 410 C357 403 363 392 347 344 C325 279 293 189 258 107 C229 178 188 283 163 353 C147 396 149 403 203 410 L203 436 L-2 436 L-2 410 C52 402 59 395 82 338 C130 222 176 109 220 -11 L248 -11 C304 137 356 260 390 335 C417 394 425 403 478 410 L478 436 Z " />
<glyph glyph-name="w" unicode="w" horiz-adv-x="685" d="M696 436 L516 436 L516 410 C580 401 587 395 574 344 C555 270 527 183 505 114 L503 114 C461 221 420 327 383 431 L357 431 C315 315 278 213 241 117 L239 117 C214 194 189 273 165 349 C151 395 156 401 216 410 L216 436 L9 436 L9 410 C57 404 65 397 83 345 C125 225 162 108 199 -11 L227 -11 C267 99 308 199 346 299 C387 194 428 97 468 -11 L497 -11 C542 124 587 257 617 336 C637 390 646 402 696 410 L696 436 Z " />
<glyph glyph-name="x" unicode="x" horiz-adv-x="472" d="M474 0 L474 26 C414 34 401 43 364 99 L267 248 C300 296 324 332 345 357 C381 398 394 404 455 410 L455 436 L272 436 L272 410 C316 405 323 400 305 369 C287 336 267 305 247 276 L188 368 C169 396 173 404 215 410 L215 436 L16 436 L16 410 C71 403 83 395 114 347 L201 211 C171 167 144 127 116 92 C77 42 66 34 4 26 L4 0 L190 0 L190 26 C139 34 136 43 156 77 C175 112 198 149 220 182 L294 66 C311 39 302 31 260 26 L260 0 L474 0 Z " />
<glyph glyph-name="y" unicode="y" horiz-adv-x="459" d="M478 436 L297 436 L297 410 C355 402 361 391 349 353 C329 291 285 173 257 105 L167 355 C153 393 158 403 205 410 L204 436 L2 436 L2 410 C57 403 66 389 88 335 C117 264 162 143 202 29 C208 13 209 0 204 -15 C199 -29 191 -49 173 -84 C149 -129 130 -153 98 -173 C81 -184 73 -193 73 -209 C73 -233 101 -257 129 -257 C143 -257 156 -252 161 -232 C175 -179 197 -122 264 37 C333 202 364 285 390 338 C417 394 425 402 478 410 L478 436 Z " />
<glyph glyph-name="z" unicode="z" horiz-adv-x="420" d="M387 138 L374 114 C336 53 316 33 240 33 L141 33 C223 167 303 294 385 422 L379 436 L149 436 C112 438 100 444 94 459 L73 459 C65 414 50 351 39 313 L64 304 L78 331 C106 387 119 402 191 402 C214 402 246 402 280 402 C198 269 117 141 31 15 L38 0 L367 0 C382 40 399 86 413 125 L387 138 Z " />
<glyph glyph-name="braceleft" unicode="&#x7b;" horiz-adv-x="347" d="M293 -141 C218 -131 209 -90 209 -44 C209 19 222 85 222 152 C222 207 198 255 139 269 L139 273 C199 286 222 334 222 388 C222 454 209 523 209 588 C209 632 218 671 293 681 L293 709 C234 709 148 695 148 577 C147 513 155 438 155 372 C155 337 152 291 64 285 L65 256 C152 250 155 204 155 169 C156 105 148 31 148 -41 C148 -157 234 -169 293 -169 L293 -141 Z " />
<glyph glyph-name="bar" unicode="&#x7c;" horiz-adv-x="263" d="M163 -250 L163 750 L99 750 L99 -250 L163 -250 Z " />
<glyph glyph-name="braceright" unicode="&#x7d;" horiz-adv-x="347" d="M283 284 C195 290 192 337 192 375 C192 436 200 508 200 580 C200 696 116 709 54 709 L54 681 C127 671 139 634 139 588 C138 524 125 452 125 387 C125 333 149 286 209 272 L209 268 C148 253 125 206 125 151 C126 87 139 16 139 -47 C139 -92 127 -131 54 -141 L54 -169 C115 -169 200 -152 200 -41 C200 32 192 104 192 164 C192 202 195 249 283 255 L283 284 Z " />
<glyph glyph-name="asciitilde" unicode="&#x7e;" horiz-adv-x="580" d="M489 308 C468 253 445 227 404 227 C372 227 341 243 302 266 C256 293 225 305 185 305 C148 305 93 290 55 195 L90 170 C112 228 140 255 181 255 C212 255 237 243 272 222 C308 200 351 177 398 177 C461 177 504 217 525 287 L489 308 Z " />
<glyph glyph-name="uni00A0" unicode="&#xa0;" horiz-adv-x="227" d="" />
<glyph glyph-name="exclamdown" unicode="&#xa1;" horiz-adv-x="276" d="M137 446 C104 446 80 422 80 387 C80 354 104 329 137 329 C169 329 194 354 194 387 C194 422 169 446 138 446 L137 446 Z M139 -228 C174 -228 192 -219 192 -198 C192 -182 189 -160 185 -120 C171 -5 166 111 157 238 C152 245 126 245 121 238 C112 111 105 -5 92 -120 C87 -160 85 -182 85 -198 C85 -219 102 -228 138 -228 L139 -228 Z " />
<glyph glyph-name="cent" unicode="&#xa2;" horiz-adv-x="480" d="M417 219 C376 178 339 158 285 160 L285 494 C318 489 343 475 367 451 C372 447 377 443 382 442 C398 443 418 465 418 485 C418 493 414 503 404 510 C383 525 345 537 303 537 C296 537 292 537 285 536 L285 615 L250 615 L250 531 C221 525 181 510 144 482 C90 440 51 375 51 298 C51 194 131 99 250 96 L250 0 L285 0 L285 98 C333 106 393 142 434 196 L417 219 Z M250 163 C198 174 129 223 129 339 C129 449 198 493 250 494 L250 163 Z " />
<glyph glyph-name="sterling" unicode="&#xa3;" horiz-adv-x="480" d="M376 295 L376 333 L202 333 C192 387 182 443 182 488 C182 552 205 584 254 584 C295 584 323 563 347 542 C357 534 366 534 375 540 C382 545 391 556 394 563 C399 574 398 583 390 593 C379 609 339 635 293 635 C265 634 219 615 189 590 C127 540 106 480 106 415 C106 386 109 358 111 333 L27 333 L27 295 L116 295 C117 281 119 262 119 236 C119 196 111 138 77 101 C59 81 39 59 30 43 C12 14 29 -5 42 -5 C48 -5 51 -1 54 7 C67 42 83 50 95 50 C108 50 123 44 153 26 C199 0 247 -28 288 -28 C323 -28 352 -14 379 3 C417 28 456 74 456 119 C456 138 447 160 433 160 C420 160 407 149 397 134 C392 127 391 119 394 112 C398 104 401 92 401 80 C401 53 381 34 343 34 C307 34 264 53 223 72 C186 89 154 99 118 99 C172 149 205 203 205 273 C205 281 205 287 204 295 L376 295 Z " />
<glyph glyph-name="currency" unicode="&#xa4;" horiz-adv-x="480" d="M448 135 L378 202 C406 235 422 280 422 325 C422 370 406 416 379 448 L448 515 L407 555 L344 480 C312 506 271 518 239 518 L238 518 C204 518 164 506 132 480 L68 555 L28 515 L97 447 C69 414 54 370 54 325 C54 280 68 236 97 201 L28 135 L68 94 L131 169 C162 143 204 131 238 131 C271 131 312 144 343 170 L407 94 L448 135 Z M239 469 C308 469 362 411 362 325 C362 238 309 180 239 180 C169 180 115 238 115 325 C115 411 168 469 238 469 L239 469 Z " />
<glyph glyph-name="yen" unicode="&#xa5;" horiz-adv-x="480" d="M466 623 L287 623 L287 597 L315 591 C347 585 348 575 337 547 C322 507 275 405 249 351 C221 416 181 509 161 560 C153 581 158 586 185 592 L211 597 L211 623 L7 623 L7 597 C54 591 65 585 92 526 C130 446 154 392 179 331 L59 331 L59 295 L189 295 C189 283 189 272 189 259 L189 228 L59 228 L59 191 L189 191 L189 107 C189 40 184 32 101 27 L101 0 L358 0 L358 27 C274 32 268 40 268 107 L268 191 L404 191 L404 228 L268 228 L268 265 C268 276 268 285 268 295 L404 295 L404 331 L275 331 C320 425 351 486 374 526 C404 579 413 590 466 597 L466 623 Z " />
<glyph glyph-name="brokenbar" unicode="&#xa6;" horiz-adv-x="263" d="M163 325 L163 675 L99 675 L99 325 L163 325 Z M163 -175 L163 175 L99 175 L99 -175 L163 -175 Z " />
<glyph glyph-name="section" unicode="&#xa7;" horiz-adv-x="477" d="M426 202 C426 274 382 328 332 371 C297 401 254 437 222 466 C193 492 185 514 185 534 C185 556 204 587 249 587 C285 587 314 569 324 560 C332 554 340 559 344 562 C351 566 362 579 362 594 C362 603 359 609 350 617 C337 629 309 640 284 640 C221 625 182 595 133 541 C89 493 54 434 54 369 C54 309 84 256 125 217 C154 189 195 147 224 119 C275 71 291 43 291 15 C290 -27 254 -45 221 -45 C182 -45 150 -22 142 -17 C136 -14 128 -15 121 -20 C113 -27 100 -41 100 -52 C100 -62 107 -72 120 -82 C139 -97 173 -104 189 -104 C241 -88 282 -61 327 -12 C372 38 425 116 426 201 L426 202 Z M104 413 C104 447 118 478 140 508 L143 507 C139 470 159 432 183 409 C202 389 260 337 294 306 C356 252 374 202 374 158 C374 116 359 79 336 44 L334 46 C336 72 326 105 315 123 C303 143 271 179 193 250 C129 310 104 357 104 411 L104 413 Z " />
<glyph glyph-name="dieresis" unicode="&#xa8;" horiz-adv-x="400" d="M115 620 C90 620 68 598 68 570 C68 544 90 522 115 522 C142 522 163 544 163 570 C163 598 142 620 116 620 L115 620 Z M284 620 C259 620 237 598 237 570 C237 544 259 522 284 522 C311 522 332 544 332 570 C332 598 311 620 285 620 L284 620 Z " />
<glyph glyph-name="copyright" unicode="&#xa9;" horiz-adv-x="702" d="M351 626 C179 626 51 491 51 322 C51 154 179 20 351 20 C523 20 651 154 651 322 C651 491 523 626 352 626 L351 626 Z M352 592 C498 592 604 476 604 323 C604 171 498 54 352 54 C205 54 98 171 98 323 C98 476 205 592 351 592 L352 592 Z M481 263 C459 211 428 178 373 178 C307 178 256 238 256 327 C256 408 298 468 370 468 C423 468 454 441 471 384 L492 388 C488 430 485 452 481 479 C463 486 427 496 377 496 C274 496 183 431 183 320 C183 236 244 149 373 149 C416 149 457 161 477 168 C485 186 496 231 503 258 L481 263 Z " />
<glyph glyph-name="ordfeminine" unicode="&#xaa;" horiz-adv-x="312" d="M300 299 L292 321 C283 316 276 314 269 314 C259 314 248 322 248 349 L248 459 C248 487 239 512 220 527 C205 538 184 544 160 544 C118 538 75 513 58 501 C47 492 38 483 38 473 C38 456 56 444 70 444 C80 444 89 448 92 459 C101 489 115 513 142 513 C172 513 190 489 190 460 L190 448 C168 432 113 415 82 403 C49 391 34 371 34 342 C34 305 65 266 112 266 C131 266 165 289 192 305 C198 290 211 267 237 266 L300 299 Z M190 330 C180 321 159 310 142 310 C119 310 97 325 97 353 C97 373 106 384 127 394 C142 402 177 415 190 422 L190 330 Z " />
<glyph glyph-name="guillemotleft" unicode="&#xab;" horiz-adv-x="444" d="M230 54 L137 221 L230 390 L208 405 C144 325 83 255 49 221 C83 189 144 118 207 38 L230 54 Z M396 54 L303 221 L396 390 L373 405 C310 325 248 255 215 221 C248 189 310 118 373 38 L396 54 Z " />
<glyph glyph-name="logicalnot" unicode="&#xac;" horiz-adv-x="580" d="M529 97 L529 368 L52 368 L52 318 L471 318 L471 97 L529 97 Z " />
<glyph glyph-name="uni00AD" unicode="&#xad;" horiz-adv-x="356" d="M300 253 L71 253 L57 198 L286 198 L300 253 Z " />
<glyph glyph-name="registered" unicode="&#xae;" horiz-adv-x="321" d="M161 659 C89 659 32 599 32 530 C32 458 88 402 161 402 C236 402 291 462 291 530 C291 599 236 659 162 659 L161 659 Z M162 636 C219 636 263 589 263 530 C263 470 219 425 162 425 C105 425 61 470 61 530 C61 589 103 636 161 636 L162 636 Z M235 474 C232 476 227 479 222 484 C207 501 199 511 189 530 C205 536 216 547 216 564 C216 593 190 599 168 599 L100 599 L100 584 C117 583 118 583 118 565 L118 497 C118 479 117 479 99 478 L99 463 L166 463 L166 478 C150 479 148 479 148 497 L148 521 L152 521 C157 521 162 520 165 514 C169 507 175 495 183 483 C195 466 209 462 232 462 L235 474 Z M148 536 L148 572 C148 582 151 584 160 584 C169 584 184 580 184 561 C184 551 181 545 174 540 C169 538 162 536 156 536 L148 536 Z " />
<glyph glyph-name="macron" unicode="&#xaf;" horiz-adv-x="400" d="M310 532 L310 586 L90 586 L90 532 L310 532 Z " />
<glyph glyph-name="degree" unicode="&#xb0;" horiz-adv-x="343" d="M172 664 C98 664 32 610 32 527 C32 440 98 390 172 390 C245 390 312 440 312 527 C312 610 245 664 173 664 L172 664 Z M173 621 C220 621 252 583 252 526 C252 471 220 433 173 433 C125 433 92 471 92 527 C92 583 125 621 172 621 L173 621 Z " />
<glyph glyph-name="plusminus" unicode="&#xb1;" horiz-adv-x="580" d="M529 311 L529 361 L320 361 L320 552 L262 552 L262 361 L52 361 L52 311 L262 311 L262 107 L320 107 L320 311 L529 311 Z M529 0 L529 50 L52 50 L52 0 L529 0 Z " />
<glyph glyph-name="twosuperior" unicode="&#xb2;" horiz-adv-x="341" d="M284 498 C264 459 253 454 214 454 L123 454 L123 456 L175 503 C250 569 281 606 281 654 C281 723 227 761 171 761 C133 761 97 745 74 716 L42 673 L59 655 C79 682 107 710 144 710 C181 710 211 687 211 637 C211 556 96 470 40 424 L40 402 L283 402 C289 430 296 458 306 491 L284 498 Z " />
<glyph glyph-name="threesuperior" unicode="&#xb3;" horiz-adv-x="341" d="M206 614 C224 624 237 634 248 642 C259 651 267 667 267 683 C267 725 230 760 172 760 L171 760 C136 760 101 741 85 723 L56 682 L72 666 C86 688 115 716 147 716 C181 716 199 696 199 670 C199 634 160 611 100 592 L106 568 C119 571 133 575 148 575 C186 575 225 554 225 507 C225 455 196 433 161 433 C130 433 102 452 85 466 C77 472 70 472 64 467 C56 461 49 453 46 443 C43 434 46 424 57 415 C69 406 96 394 125 394 C167 394 293 436 293 528 C293 572 260 602 206 612 L206 614 Z " />
<glyph glyph-name="acute" unicode="&#xb4;" horiz-adv-x="400" d="M316 657 L313 666 C301 668 243 659 234 655 C227 638 186 540 167 498 L193 485 L316 657 Z " />
<glyph glyph-name="mu" unicode="&#xb5;" horiz-adv-x="512" d="M498 54 C489 49 475 44 463 44 C442 44 422 59 422 114 L422 448 L342 430 L342 103 C323 80 285 50 242 50 C202 50 151 77 151 172 L151 343 C151 380 151 425 149 448 L68 430 C70 406 71 369 71 334 L71 41 C71 -64 68 -201 73 -218 C88 -233 126 -255 148 -257 L161 -245 C146 -205 123 -65 124 14 L124 30 L128 30 C144 7 173 -12 209 -12 C261 -12 304 22 343 66 L345 66 C351 20 381 -12 423 -12 C457 -12 492 8 508 28 L498 54 Z " />
<glyph glyph-name="paragraph" unicode="&#xb6;" horiz-adv-x="497" d="M466 533 L462 545 L264 545 C218 545 158 521 116 482 C78 446 50 388 50 322 C50 196 157 120 213 120 C221 120 226 121 230 123 L297 152 L297 2 C297 -129 258 -155 220 -155 C198 -155 178 -147 157 -133 C150 -128 144 -128 138 -133 C131 -139 121 -150 118 -160 C114 -170 117 -180 128 -190 C140 -202 165 -213 194 -213 C204 -213 251 -194 281 -163 C328 -114 348 -60 348 22 L348 496 L436 506 L466 533 Z " />
<glyph glyph-name="periodcentered" unicode="&#xb7;" horiz-adv-x="226" d="M113 174 C145 174 170 198 170 233 C170 265 145 290 113 290 C80 290 56 265 56 233 C56 198 80 174 112 174 L113 174 Z " />
<glyph glyph-name="cedilla" unicode="&#xb8;" horiz-adv-x="400" d="M245 0 L206 0 L168 -51 C148 -76 154 -90 179 -113 C190 -124 202 -136 202 -152 C202 -172 184 -194 142 -212 L154 -238 C225 -217 269 -179 269 -137 C269 -114 257 -96 230 -68 C213 -52 210 -44 224 -27 L245 0 Z " />
<glyph glyph-name="onesuperior" unicode="&#xb9;" horiz-adv-x="341" d="M273 402 L273 425 C219 431 208 435 208 484 L208 760 C161 745 119 736 75 731 L75 708 L105 707 C139 704 142 700 142 662 L142 484 C142 435 130 429 76 425 L76 402 L273 402 Z " />
<glyph glyph-name="ordmasculine" unicode="&#xba;" horiz-adv-x="342" d="M171 544 C111 544 29 498 29 400 C29 334 81 266 170 266 C236 266 309 315 310 408 C310 482 252 544 172 544 L171 544 Z M165 516 C214 516 241 463 241 394 C241 319 211 294 177 294 C133 294 100 343 100 416 C100 483 130 516 164 516 L165 516 Z " />
<glyph glyph-name="guillemotright" unicode="&#xbb;" horiz-adv-x="445" d="M49 390 L143 221 L49 53 L72 38 C135 118 197 189 230 221 C197 254 135 325 72 405 L49 390 Z M214 390 L307 221 L214 53 L237 38 C300 118 362 189 395 221 C362 254 300 325 237 405 L214 390 Z " />
<glyph glyph-name="onequarter" unicode="&#xbc;" horiz-adv-x="762" d="M603 631 L571 655 L166 -3 L196 -27 L603 631 Z M276 278 L276 303 C222 309 211 313 211 362 L211 637 C165 622 123 613 79 607 L79 583 L109 581 C143 579 146 575 146 537 L146 362 C146 313 134 308 80 303 L80 278 L276 278 Z M689 98 L689 135 L629 135 L629 358 L589 358 C529 287 462 201 402 121 L402 98 L566 98 L566 73 C566 32 555 28 503 24 L503 0 L685 0 L685 24 C639 28 629 32 629 73 L629 98 L689 98 Z M566 135 L456 135 C492 189 526 235 564 282 L566 282 L566 135 Z " />
<glyph glyph-name="onehalf" unicode="&#xbd;" horiz-adv-x="762" d="M589 631 L557 655 L152 -3 L182 -27 L589 631 Z M269 278 L269 303 C215 310 204 314 204 362 L204 637 C158 622 116 612 72 607 L72 583 L102 581 C136 579 139 575 139 537 L139 362 C139 314 127 309 73 303 L73 278 L269 278 Z M680 94 C662 58 648 52 611 52 L522 52 L522 54 L575 101 C648 164 678 200 678 251 C678 320 625 359 568 359 C530 359 495 344 473 315 L438 270 L459 252 C479 280 506 307 541 307 C586 307 608 277 608 236 C608 157 493 67 436 21 L436 0 L681 0 C687 27 693 54 703 87 L680 94 Z " />
<glyph glyph-name="threequarters" unicode="&#xbe;" horiz-adv-x="762" d="M606 631 L574 655 L169 -3 L199 -27 L606 631 Z M233 489 C251 499 264 508 275 517 C286 526 295 542 295 559 C295 601 257 635 199 635 L198 635 C164 635 132 619 115 601 L84 558 L101 543 C116 565 144 589 175 589 C209 589 227 569 227 544 C227 511 194 487 128 466 L134 441 C145 444 162 448 178 448 C215 448 252 430 252 382 C252 334 227 309 188 309 C157 309 130 327 113 340 C105 346 99 346 92 341 C85 336 77 327 74 318 C71 308 74 299 85 290 C97 281 122 269 152 269 C194 269 320 312 320 403 C320 442 289 476 233 487 L233 489 Z M683 98 L683 135 L623 135 L623 358 L583 358 C523 287 456 201 397 121 L397 98 L560 98 L560 73 C560 32 549 27 497 23 L497 0 L678 0 L678 23 C633 27 623 32 623 73 L623 98 L683 98 Z M560 135 L449 135 C486 189 520 236 557 282 L560 282 L560 135 Z " />
<glyph glyph-name="questiondown" unicode="&#xbf;" horiz-adv-x="379" d="M190 447 C159 447 136 424 136 390 C136 358 159 333 190 333 C221 333 245 358 245 390 C245 424 221 447 191 447 L190 447 Z M158 220 C188 194 205 174 205 141 C205 93 126 45 94 19 C59 -9 46 -35 46 -70 C46 -152 123 -228 206 -228 L207 -228 C224 -228 268 -217 299 -191 C313 -178 320 -168 320 -155 C320 -130 292 -111 279 -111 C267 -111 228 -164 165 -164 C128 -164 106 -145 106 -111 C106 -68 166 -27 203 1 C266 48 288 79 288 113 C288 174 214 229 176 243 L158 220 Z " />
<glyph glyph-name="Agrave" unicode="&#xc0;" horiz-adv-x="691" d="M673 0 L673 28 C608 35 594 44 563 130 C499 303 432 494 370 665 L339 656 L132 132 C98 43 84 37 20 28 L20 0 L238 0 L238 28 C162 36 154 45 175 109 C188 150 203 192 219 237 L432 237 C454 176 474 122 487 83 C500 44 491 36 428 28 L428 0 L673 0 Z M418 280 L234 280 C265 362 296 450 328 535 L330 535 L418 280 Z M407 709 C356 743 303 777 249 812 C237 808 210 769 206 755 L208 747 L394 684 L407 709 Z " />
<glyph glyph-name="Aacute" unicode="&#xc1;" horiz-adv-x="691" d="M673 0 L673 28 C608 35 594 44 563 130 C499 303 432 494 370 665 L339 656 L132 132 C98 43 84 37 20 28 L20 0 L238 0 L238 28 C162 36 154 45 175 109 C188 150 203 192 219 237 L432 237 C454 176 474 122 487 83 C500 44 491 36 428 28 L428 0 L673 0 Z M418 280 L234 280 C265 362 296 450 328 535 L330 535 L418 280 Z M505 756 C502 770 474 809 462 811 C416 781 359 743 305 709 L318 684 L503 748 L505 756 Z " />
<glyph glyph-name="Acircumflex" unicode="&#xc2;" horiz-adv-x="691" d="M673 0 L673 28 C608 35 594 44 563 130 C499 303 432 494 370 665 L339 656 L132 132 C98 43 84 37 20 28 L20 0 L238 0 L238 28 C162 36 154 45 175 109 C188 150 203 192 219 237 L432 237 C454 176 474 122 487 83 C500 44 491 36 428 28 L428 0 L673 0 Z M418 280 L234 280 C265 362 296 450 328 535 L330 535 L418 280 Z M494 709 C451 742 407 775 369 816 L347 816 C309 775 264 742 221 709 L237 684 C277 701 318 724 357 746 C397 723 438 701 478 684 L494 709 Z " />
<glyph glyph-name="Atilde" unicode="&#xc3;" horiz-adv-x="691" d="M673 0 L673 28 C608 35 594 44 563 130 C499 303 432 494 370 665 L339 656 L132 132 C98 43 84 37 20 28 L20 0 L238 0 L238 28 C162 36 154 45 175 109 C188 150 203 192 219 237 L432 237 C454 176 474 122 487 83 C500 44 491 36 428 28 L428 0 L673 0 Z M418 280 L234 280 C265 362 296 450 328 535 L330 535 L418 280 Z M304 788 C280 788 249 769 224 706 L248 689 C263 717 277 733 296 733 C313 733 324 727 340 719 C367 706 388 697 410 697 C437 697 470 715 492 782 L467 796 C454 767 440 753 421 753 C403 753 388 759 366 769 C337 783 323 788 305 788 L304 788 Z " />
<glyph glyph-name="Adieresis" unicode="&#xc4;" horiz-adv-x="691" d="M673 0 L673 28 C608 35 594 44 563 130 C499 303 432 494 370 665 L339 656 L132 132 C98 43 84 37 20 28 L20 0 L238 0 L238 28 C162 36 154 45 175 109 C188 150 203 192 219 237 L432 237 C454 176 474 122 487 83 C500 44 491 36 428 28 L428 0 L673 0 Z M418 280 L234 280 C265 362 296 450 328 535 L330 535 L418 280 Z M449 794 C424 794 402 772 402 744 C402 718 424 696 449 696 C476 696 497 718 497 744 C497 772 476 794 450 794 L449 794 Z M258 794 C233 794 211 772 211 744 C211 718 233 696 258 696 C285 696 306 718 306 744 C306 772 285 794 259 794 L258 794 Z " />
<glyph glyph-name="Aring" unicode="&#xc5;" horiz-adv-x="691" d="M673 0 L673 28 C608 35 594 44 563 130 C499 303 432 494 370 665 L339 656 L132 132 C98 43 84 37 20 28 L20 0 L238 0 L238 28 C162 36 154 45 175 109 C188 150 203 192 219 237 L432 237 C454 176 474 122 487 83 C500 44 491 36 428 28 L428 0 L673 0 Z M418 280 L234 280 C265 362 296 450 328 535 L330 535 L418 280 Z M355 855 C311 855 267 824 267 772 C267 719 311 686 355 686 C400 686 444 719 444 772 C444 824 400 855 356 855 L355 855 Z M355 824 C382 824 399 802 399 772 C399 741 382 717 355 717 C329 717 311 741 311 772 C311 802 329 824 354 824 L355 824 Z " />
<glyph glyph-name="AE" unicode="&#xc6;" horiz-adv-x="869" d="M819 165 C802 118 786 88 770 69 C747 42 713 35 642 35 C595 35 560 35 540 47 C522 58 516 78 516 130 L516 296 L605 296 C695 296 701 288 715 217 L745 217 L745 412 L715 412 C702 344 696 335 605 335 L516 335 L516 584 C516 613 518 615 548 615 L631 615 C700 615 720 608 736 587 C750 569 758 544 768 504 L798 508 C793 558 789 625 788 650 L275 650 L275 623 L316 618 C366 611 369 603 347 561 C278 430 190 258 107 112 C69 44 52 36 -11 27 L-11 0 L218 0 L218 27 C140 37 137 50 160 102 C186 160 212 213 256 296 L433 296 L433 134 C433 44 425 34 339 28 L339 0 L812 0 C821 31 842 127 848 158 L819 165 Z M433 335 L274 335 C330 449 366 518 405 591 C419 608 426 610 433 610 L433 335 Z " />
<glyph glyph-name="Ccedilla" unicode="&#xc7;" horiz-adv-x="661" d="M613 178 C561 76 510 23 405 23 C248 23 149 156 149 337 C149 502 245 628 397 628 C509 628 562 587 593 479 L623 484 C617 540 611 582 603 638 C575 645 510 665 425 665 C204 665 46 522 46 314 C46 162 147 -7 382 -14 L355 -51 C337 -75 342 -89 366 -113 C377 -124 389 -135 389 -151 C389 -172 369 -193 328 -211 L342 -239 C411 -217 455 -177 455 -137 C455 -114 444 -96 417 -69 C401 -52 398 -44 411 -27 L422 -13 C486 -12 561 5 587 11 C604 45 628 117 641 167 L613 178 Z " />
<glyph glyph-name="Egrave" unicode="&#xc8;" horiz-adv-x="568" d="M517 162 C503 122 484 88 467 68 C445 42 417 34 341 34 C291 34 256 34 237 47 C219 59 213 81 213 128 L213 317 L308 317 C395 317 402 311 415 240 L444 240 L444 431 L415 431 C403 364 398 356 307 356 L213 356 L213 584 C213 613 215 616 246 616 L322 616 C394 616 421 609 435 587 C448 566 458 544 467 502 L496 506 C493 558 488 626 488 650 L42 650 L42 623 C120 616 128 612 128 523 L128 125 C128 43 120 35 29 28 L29 0 L511 0 C520 31 540 125 546 158 L517 162 Z M349 709 C298 743 245 777 191 812 C179 808 152 769 148 755 L150 747 L336 684 L349 709 Z " />
<glyph glyph-name="Eacute" unicode="&#xc9;" horiz-adv-x="568" d="M517 162 C503 122 484 88 467 68 C445 42 417 34 341 34 C291 34 256 34 237 47 C219 59 213 81 213 128 L213 317 L308 317 C395 317 402 311 415 240 L444 240 L444 431 L415 431 C403 364 398 356 307 356 L213 356 L213 584 C213 613 215 616 246 616 L322 616 C394 616 421 609 435 587 C448 566 458 544 467 502 L496 506 C493 558 488 626 488 650 L42 650 L42 623 C120 616 128 612 128 523 L128 125 C128 43 120 35 29 28 L29 0 L511 0 C520 31 540 125 546 158 L517 162 Z M431 756 C428 770 400 809 388 811 C342 781 285 743 231 709 L244 684 L429 748 L431 756 Z " />
<glyph glyph-name="Ecircumflex" unicode="&#xca;" horiz-adv-x="568" d="M517 162 C503 122 484 88 467 68 C445 42 417 34 341 34 C291 34 256 34 237 47 C219 59 213 81 213 128 L213 317 L308 317 C395 317 402 311 415 240 L444 240 L444 431 L415 431 C403 364 398 356 307 356 L213 356 L213 584 C213 613 215 616 246 616 L322 616 C394 616 421 609 435 587 C448 566 458 544 467 502 L496 506 C493 558 488 626 488 650 L42 650 L42 623 C120 616 128 612 128 523 L128 125 C128 43 120 35 29 28 L29 0 L511 0 C520 31 540 125 546 158 L517 162 Z M424 709 C381 742 337 775 299 816 L277 816 C239 775 194 742 151 709 L167 684 C207 701 248 724 287 746 C327 723 368 701 408 684 L424 709 Z " />
<glyph glyph-name="Edieresis" unicode="&#xcb;" horiz-adv-x="568" d="M517 162 C503 122 484 88 467 68 C445 42 417 34 341 34 C291 34 256 34 237 47 C219 59 213 81 213 128 L213 317 L308 317 C395 317 402 311 415 240 L444 240 L444 431 L415 431 C403 364 398 356 307 356 L213 356 L213 584 C213 613 215 616 246 616 L322 616 C394 616 421 609 435 587 C448 566 458 544 467 502 L496 506 C493 558 488 626 488 650 L42 650 L42 623 C120 616 128 612 128 523 L128 125 C128 43 120 35 29 28 L29 0 L511 0 C520 31 540 125 546 158 L517 162 Z M385 798 C360 798 338 776 338 748 C338 722 360 700 385 700 C412 700 433 722 433 748 C433 776 412 798 386 798 L385 798 Z M194 798 C169 798 147 776 147 748 C147 722 169 700 194 700 C221 700 242 722 242 748 C242 776 221 798 195 798 L194 798 Z " />
<glyph glyph-name="Igrave" unicode="&#xcc;" horiz-adv-x="341" d="M303 0 L303 28 C221 34 213 39 213 125 L213 525 C213 610 221 616 303 622 L303 650 L38 650 L38 622 C120 616 128 610 128 525 L128 125 C128 40 120 34 38 28 L38 0 L303 0 Z M235 709 C184 743 131 777 77 812 C65 808 38 769 34 755 L36 747 L222 684 L235 709 Z " />
<glyph glyph-name="Iacute" unicode="&#xcd;" horiz-adv-x="341" d="M303 0 L303 28 C221 34 213 39 213 125 L213 525 C213 610 221 616 303 622 L303 650 L38 650 L38 622 C120 616 128 610 128 525 L128 125 C128 40 120 34 38 28 L38 0 L303 0 Z M312 756 C309 770 281 809 269 811 C223 781 166 743 112 709 L125 684 L310 748 L312 756 Z " />
<glyph glyph-name="Icircumflex" unicode="&#xce;" horiz-adv-x="341" d="M303 0 L303 28 C221 34 213 39 213 125 L213 525 C213 610 221 616 303 622 L303 650 L38 650 L38 622 C120 616 128 610 128 525 L128 125 C128 40 120 34 38 28 L38 0 L303 0 Z M307 709 C264 742 220 775 182 816 L160 816 C122 775 77 742 34 709 L50 684 C90 701 131 724 170 746 C210 723 251 701 291 684 L307 709 Z " />
<glyph glyph-name="Idieresis" unicode="&#xcf;" horiz-adv-x="341" d="M303 0 L303 28 C221 34 213 39 213 125 L213 525 C213 610 221 616 303 622 L303 650 L38 650 L38 622 C120 616 128 610 128 525 L128 125 C128 40 120 34 38 28 L38 0 L303 0 Z M266 795 C241 795 219 773 219 745 C219 719 241 697 266 697 C293 697 314 719 314 745 C314 773 293 795 267 795 L266 795 Z M75 795 C50 795 28 773 28 745 C28 719 50 697 75 697 C102 697 123 719 123 745 C123 773 102 795 76 795 L75 795 Z " />
<glyph glyph-name="Eth" unicode="&#xd0;" horiz-adv-x="737" d="M53 650 L53 623 C131 617 139 610 139 513 L139 361 L37 361 L37 320 L139 320 L139 137 C139 42 131 33 45 28 L45 0 L274 0 C393 0 490 25 567 83 C645 141 692 230 692 350 C692 443 656 517 606 565 C541 627 447 650 329 650 L53 650 Z M224 320 L381 320 L381 361 L224 361 L224 564 C224 592 228 602 236 607 C246 612 270 617 315 617 C380 617 437 603 477 578 C554 530 592 443 592 335 C592 175 508 37 321 37 C237 37 224 65 224 132 L224 320 Z " />
<glyph glyph-name="Ntilde" unicode="&#xd1;" horiz-adv-x="743" d="M719 650 L483 650 L483 622 C553 618 576 605 581 560 C585 532 588 486 588 394 L588 149 L585 149 L167 650 L20 650 L20 622 C67 618 88 610 109 585 C127 561 129 557 129 484 L129 264 C129 173 126 124 123 93 C118 44 92 32 35 28 L35 0 L272 0 L272 28 C204 32 181 44 176 95 C173 124 170 172 170 264 L170 515 L172 515 L598 -9 L629 -9 L629 394 C629 487 631 532 635 563 C639 606 663 619 719 622 L719 650 Z M324 788 C300 788 269 769 244 706 L268 689 C283 717 297 733 316 733 C333 733 344 727 360 719 C387 706 408 697 430 697 C457 697 490 715 512 782 L487 796 C474 767 460 753 441 753 C423 753 408 759 386 769 C357 783 343 788 325 788 L324 788 Z " />
<glyph glyph-name="Ograve" unicode="&#xd2;" horiz-adv-x="747" d="M380 665 C170 665 44 498 44 318 C44 125 188 -15 369 -15 C552 -15 703 117 703 333 C703 533 550 665 381 665 L380 665 Z M360 629 C491 629 601 517 601 306 C601 114 502 21 390 21 C249 21 146 158 146 346 C146 534 248 629 359 629 L360 629 Z M446 718 C395 752 342 786 288 821 C276 817 249 778 245 764 L247 756 L433 693 L446 718 Z " />
<glyph glyph-name="Oacute" unicode="&#xd3;" horiz-adv-x="747" d="M380 665 C170 665 44 498 44 318 C44 125 188 -15 369 -15 C552 -15 703 117 703 333 C703 533 550 665 381 665 L380 665 Z M360 629 C491 629 601 517 601 306 C601 114 502 21 390 21 C249 21 146 158 146 346 C146 534 248 629 359 629 L360 629 Z M504 763 C501 777 473 816 461 818 C415 788 358 750 304 716 L317 691 L502 755 L504 763 Z " />
<glyph glyph-name="Ocircumflex" unicode="&#xd4;" horiz-adv-x="747" d="M380 665 C170 665 44 498 44 318 C44 125 188 -15 369 -15 C552 -15 703 117 703 333 C703 533 550 665 381 665 L380 665 Z M360 629 C491 629 601 517 601 306 C601 114 502 21 390 21 C249 21 146 158 146 346 C146 534 248 629 359 629 L360 629 Z M510 716 C467 749 423 782 385 823 L363 823 C325 782 280 749 237 716 L253 691 C293 708 334 731 373 753 C413 730 454 708 494 691 L510 716 Z " />
<glyph glyph-name="Otilde" unicode="&#xd5;" horiz-adv-x="747" d="M380 665 C170 665 44 498 44 318 C44 125 188 -15 369 -15 C552 -15 703 117 703 333 C703 533 550 665 381 665 L380 665 Z M360 629 C491 629 601 517 601 306 C601 114 502 21 390 21 C249 21 146 158 146 346 C146 534 248 629 359 629 L360 629 Z M322 797 C298 797 267 778 242 715 L266 698 C281 726 295 742 314 742 C331 742 342 736 358 728 C385 715 406 706 428 706 C455 706 488 724 510 791 L485 805 C472 776 458 762 439 762 C421 762 406 768 384 778 C355 792 341 797 323 797 L322 797 Z " />
<glyph glyph-name="Odieresis" unicode="&#xd6;" horiz-adv-x="747" d="M380 665 C170 665 44 498 44 318 C44 125 188 -15 369 -15 C552 -15 703 117 703 333 C703 533 550 665 381 665 L380 665 Z M360 629 C491 629 601 517 601 306 C601 114 502 21 390 21 C249 21 146 158 146 346 C146 534 248 629 359 629 L360 629 Z M469 799 C444 799 422 777 422 749 C422 723 444 701 469 701 C496 701 517 723 517 749 C517 777 496 799 470 799 L469 799 Z M278 799 C253 799 231 777 231 749 C231 723 253 701 278 701 C305 701 326 723 326 749 C326 777 305 799 279 799 L278 799 Z " />
<glyph glyph-name="multiply" unicode="&#xd7;" horiz-adv-x="580" d="M522 46 L327 245 L522 445 L485 482 L290 282 L95 481 L60 443 L253 245 L60 46 L95 8 L290 207 L485 8 L522 46 Z " />
<glyph glyph-name="Oslash" unicode="&#xd8;" horiz-adv-x="749" d="M633 674 L603 694 L553 619 C506 650 449 665 390 665 C181 665 50 499 50 319 C50 208 100 115 171 56 L118 -22 L145 -45 L201 35 C251 3 311 -15 374 -15 C560 -15 710 120 710 335 C710 447 656 541 584 600 L633 674 Z M217 123 C177 176 150 256 150 344 C150 534 254 629 367 629 C425 629 477 609 517 566 L217 123 Z M541 537 C581 482 610 406 610 305 C610 150 542 21 391 21 C333 21 277 45 240 92 L541 537 Z " />
<glyph glyph-name="Ugrave" unicode="&#xd9;" horiz-adv-x="736" d="M716 650 L478 650 L478 622 C549 617 570 605 575 566 C579 535 582 493 582 401 L582 326 C582 161 537 40 393 40 C269 40 205 132 205 294 L205 521 C205 611 213 617 291 622 L291 650 L33 650 L33 622 C111 615 120 611 120 521 L120 272 C120 154 148 79 208 33 C252 0 309 -14 368 -14 C434 -14 501 7 548 55 C605 115 623 201 623 319 L623 400 C623 493 626 536 629 563 C633 605 656 618 716 622 L716 650 Z M439 709 C388 743 335 777 281 812 C269 808 242 769 238 755 L240 747 L426 684 L439 709 Z " />
<glyph glyph-name="Uacute" unicode="&#xda;" horiz-adv-x="736" d="M716 650 L478 650 L478 622 C549 617 570 605 575 566 C579 535 582 493 582 401 L582 326 C582 161 537 40 393 40 C269 40 205 132 205 294 L205 521 C205 611 213 617 291 622 L291 650 L33 650 L33 622 C111 615 120 611 120 521 L120 272 C120 154 148 79 208 33 C252 0 309 -14 368 -14 C434 -14 501 7 548 55 C605 115 623 201 623 319 L623 400 C623 493 626 536 629 563 C633 605 656 618 716 622 L716 650 Z M519 756 C516 770 488 809 476 811 C430 781 373 743 319 709 L332 684 L517 748 L519 756 Z " />
<glyph glyph-name="Ucircumflex" unicode="&#xdb;" horiz-adv-x="736" d="M716 650 L478 650 L478 622 C549 617 570 605 575 566 C579 535 582 493 582 401 L582 326 C582 161 537 40 393 40 C269 40 205 132 205 294 L205 521 C205 611 213 617 291 622 L291 650 L33 650 L33 622 C111 615 120 611 120 521 L120 272 C120 154 148 79 208 33 C252 0 309 -14 368 -14 C434 -14 501 7 548 55 C605 115 623 201 623 319 L623 400 C623 493 626 536 629 563 C633 605 656 618 716 622 L716 650 Z M517 709 C474 742 430 775 392 816 L370 816 C332 775 287 742 244 709 L260 684 C300 701 341 724 380 746 C420 723 461 701 501 684 L517 709 Z " />
<glyph glyph-name="Udieresis" unicode="&#xdc;" horiz-adv-x="736" d="M716 650 L478 650 L478 622 C549 617 570 605 575 566 C579 535 582 493 582 401 L582 326 C582 161 537 40 393 40 C269 40 205 132 205 294 L205 521 C205 611 213 617 291 622 L291 650 L33 650 L33 622 C111 615 120 611 120 521 L120 272 C120 154 148 79 208 33 C252 0 309 -14 368 -14 C434 -14 501 7 548 55 C605 115 623 201 623 319 L623 400 C623 493 626 536 629 563 C633 605 656 618 716 622 L716 650 Z M472 795 C447 795 425 773 425 745 C425 719 447 697 472 697 C499 697 520 719 520 745 C520 773 499 795 473 795 L472 795 Z M281 795 C256 795 234 773 234 745 C234 719 256 697 281 697 C308 697 329 719 329 745 C329 773 308 795 282 795 L281 795 Z " />
<glyph glyph-name="Yacute" unicode="&#xdd;" horiz-adv-x="634" d="M620 650 L399 650 L399 622 C477 614 480 606 457 556 C429 495 375 397 339 331 C295 406 246 488 203 568 C185 601 182 613 254 622 L254 650 L15 650 L15 622 C75 617 86 606 126 537 C180 445 217 379 252 318 C269 287 273 278 273 258 L273 125 C273 41 265 34 175 28 L175 0 L458 0 L458 28 C366 34 358 41 358 125 L358 261 C358 287 361 298 375 324 C422 412 456 470 501 543 C539 604 551 614 620 622 L620 650 Z M471 756 C468 770 440 809 428 811 C382 781 325 743 271 709 L284 684 L469 748 L471 756 Z " />
<glyph glyph-name="Thorn" unicode="&#xde;" horiz-adv-x="549" d="M288 650 L42 650 L42 622 C118 616 124 610 124 518 L124 132 C124 41 116 34 38 28 L38 0 L302 0 L302 28 C217 34 208 41 208 127 L208 169 L279 152 C398 153 510 213 510 337 C510 457 427 507 296 507 C267 507 238 506 208 505 C208 613 215 616 288 622 L288 650 Z M208 433 C208 456 212 461 219 465 C227 470 246 474 273 474 C361 474 414 428 414 334 C414 240 353 192 276 192 C242 192 220 199 208 204 L208 433 Z " />
<glyph glyph-name="germandbls" unicode="&#xdf;" horiz-adv-x="545" d="M103 436 L56 436 L28 403 L33 393 L103 393 L103 102 C103 43 96 32 31 27 L31 0 L235 0 L235 27 C187 32 182 42 182 104 L182 399 C182 541 195 670 294 670 C364 670 413 607 413 542 C413 529 411 517 406 508 C401 500 388 488 363 463 C318 414 293 383 293 346 C293 308 320 270 375 224 C417 188 444 158 444 114 C444 53 402 32 372 32 C349 32 323 42 298 61 C291 66 284 65 278 60 C270 54 261 42 259 34 C257 22 262 11 279 0 C295 -10 315 -13 334 -13 C404 -13 518 57 518 156 C518 214 474 256 438 287 C402 319 368 346 368 383 C368 418 401 465 471 520 C479 532 482 544 482 561 C479 657 416 710 325 712 C275 708 234 689 197 658 C139 609 123 561 115 534 C108 511 103 483 103 448 L103 436 Z " />
<glyph glyph-name="agrave" unicode="&#xe0;" horiz-adv-x="439" d="M433 39 L423 65 C413 59 399 53 387 53 C370 53 352 68 352 113 L352 298 C352 351 342 391 307 421 C285 439 255 448 225 448 C168 435 104 398 76 378 C57 364 45 353 45 338 C45 315 70 296 88 296 C102 296 112 303 117 319 C126 349 134 371 147 384 C157 396 172 403 191 403 C242 403 275 363 275 290 L275 273 C253 255 180 228 120 208 C65 189 39 158 39 110 C39 47 88 -12 159 -12 C189 -12 237 25 277 52 C282 34 288 20 301 7 C312 -3 333 -12 348 -12 L433 39 Z M275 84 C256 65 221 48 195 48 C164 48 124 72 124 124 C124 161 146 179 185 197 C206 207 254 228 275 239 L275 84 Z M252 501 C232 552 203 624 185 669 C170 671 120 661 111 656 L108 648 C135 612 182 547 225 487 L252 501 Z " />
<glyph glyph-name="aacute" unicode="&#xe1;" horiz-adv-x="439" d="M433 39 L423 65 C413 59 399 53 387 53 C370 53 352 68 352 113 L352 298 C352 351 342 391 307 421 C285 439 255 448 225 448 C168 435 104 398 76 378 C57 364 45 353 45 338 C45 315 70 296 88 296 C102 296 112 303 117 319 C126 349 134 371 147 384 C157 396 172 403 191 403 C242 403 275 363 275 290 L275 273 C253 255 180 228 120 208 C65 189 39 158 39 110 C39 47 88 -12 159 -12 C189 -12 237 25 277 52 C282 34 288 20 301 7 C312 -3 333 -12 348 -12 L433 39 Z M275 84 C256 65 221 48 195 48 C164 48 124 72 124 124 C124 161 146 179 185 197 C206 207 254 228 275 239 L275 84 Z M328 657 L325 666 C313 668 255 659 246 655 C239 638 198 540 179 498 L205 485 L328 657 Z " />
<glyph glyph-name="acircumflex" unicode="&#xe2;" horiz-adv-x="439" d="M433 39 L423 65 C413 59 399 53 387 53 C370 53 352 68 352 113 L352 298 C352 351 342 391 307 421 C285 439 255 448 225 448 C168 435 104 398 76 378 C57 364 45 353 45 338 C45 315 70 296 88 296 C102 296 112 303 117 319 C126 349 134 371 147 384 C157 396 172 403 191 403 C242 403 275 363 275 290 L275 273 C253 255 180 228 120 208 C65 189 39 158 39 110 C39 47 88 -12 159 -12 C189 -12 237 25 277 52 C282 34 288 20 301 7 C312 -3 333 -12 348 -12 L433 39 Z M275 84 C256 65 221 48 195 48 C164 48 124 72 124 124 C124 161 146 179 185 197 C206 207 254 228 275 239 L275 84 Z M321 501 C283 555 251 609 222 664 L197 664 C167 609 135 555 96 501 L120 484 C153 514 182 548 209 581 C235 548 264 514 296 484 L321 501 Z " />
<glyph glyph-name="atilde" unicode="&#xe3;" horiz-adv-x="439" d="M433 39 L423 65 C413 59 399 53 387 53 C370 53 352 68 352 113 L352 298 C352 351 342 391 307 421 C285 439 255 448 225 448 C168 435 104 398 76 378 C57 364 45 353 45 338 C45 315 70 296 88 296 C102 296 112 303 117 319 C126 349 134 371 147 384 C157 396 172 403 191 403 C242 403 275 363 275 290 L275 273 C253 255 180 228 120 208 C65 189 39 158 39 110 C39 47 88 -12 159 -12 C189 -12 237 25 277 52 C282 34 288 20 301 7 C312 -3 333 -12 348 -12 L433 39 Z M275 84 C256 65 221 48 195 48 C164 48 124 72 124 124 C124 161 146 179 185 197 C206 207 254 228 275 239 L275 84 Z M162 612 C136 612 104 590 82 522 L108 505 C121 538 135 553 152 553 C167 553 180 548 197 538 C222 524 242 514 263 514 C288 514 319 531 342 604 L317 618 C304 589 291 573 274 573 C258 573 242 581 221 592 C192 607 179 612 163 612 L162 612 Z " />
<glyph glyph-name="adieresis" unicode="&#xe4;" horiz-adv-x="439" d="M433 39 L423 65 C413 59 399 53 387 53 C370 53 352 68 352 113 L352 298 C352 351 342 391 307 421 C285 439 255 448 225 448 C168 435 104 398 76 378 C57 364 45 353 45 338 C45 315 70 296 88 296 C102 296 112 303 117 319 C126 349 134 371 147 384 C157 396 172 403 191 403 C242 403 275 363 275 290 L275 273 C253 255 180 228 120 208 C65 189 39 158 39 110 C39 47 88 -12 159 -12 C189 -12 237 25 277 52 C282 34 288 20 301 7 C312 -3 333 -12 348 -12 L433 39 Z M275 84 C256 65 221 48 195 48 C164 48 124 72 124 124 C124 161 146 179 185 197 C206 207 254 228 275 239 L275 84 Z M125 620 C100 620 78 598 78 570 C78 544 100 522 125 522 C152 522 173 544 173 570 C173 598 152 620 126 620 L125 620 Z M294 620 C269 620 247 598 247 570 C247 544 269 522 294 522 C321 522 342 544 342 570 C342 598 321 620 295 620 L294 620 Z " />
<glyph glyph-name="aring" unicode="&#xe5;" horiz-adv-x="439" d="M433 39 L423 65 C413 59 399 53 387 53 C370 53 352 68 352 113 L352 298 C352 351 342 391 307 421 C285 439 255 448 225 448 C168 435 104 398 76 378 C57 364 45 353 45 338 C45 315 70 296 88 296 C102 296 112 303 117 319 C126 349 134 371 147 384 C157 396 172 403 191 403 C242 403 275 363 275 290 L275 273 C253 255 180 228 120 208 C65 189 39 158 39 110 C39 47 88 -12 159 -12 C189 -12 237 25 277 52 C282 34 288 20 301 7 C312 -3 333 -12 348 -12 L433 39 Z M275 84 C256 65 221 48 195 48 C164 48 124 72 124 124 C124 161 146 179 185 197 C206 207 254 228 275 239 L275 84 Z M211 657 C166 657 122 626 122 573 C122 520 166 488 211 488 C255 488 299 520 299 573 C299 626 255 657 212 657 L211 657 Z M212 626 C239 626 256 604 256 573 C256 542 239 518 212 518 C185 518 167 542 167 573 C167 604 185 626 211 626 L212 626 Z " />
<glyph glyph-name="ae" unicode="&#xe6;" horiz-adv-x="671" d="M284 274 C253 252 174 226 119 207 C65 188 40 159 40 108 C40 49 88 -12 161 -12 C190 -12 243 20 282 49 L317 76 C349 23 405 -12 478 -12 C509 -12 583 6 641 84 L624 105 C586 69 551 55 513 55 C435 55 355 113 357 246 C482 250 608 260 623 263 C642 267 646 275 646 298 C645 373 578 448 492 448 C439 448 384 417 344 372 C335 395 322 413 304 426 C286 440 259 448 230 448 C174 435 109 398 79 378 C59 364 48 351 48 335 C48 314 78 294 94 294 C109 294 117 302 122 318 C130 347 138 367 149 381 C159 394 174 403 196 403 C244 403 284 361 284 298 L284 274 Z M469 410 C527 410 560 362 560 311 C560 293 553 289 539 289 C480 287 420 287 363 286 C373 369 423 410 468 410 L469 410 Z M198 51 C162 51 125 77 125 127 C125 162 143 180 185 198 C219 212 262 229 283 240 C283 190 288 138 303 107 C270 64 229 51 199 51 L198 51 Z " />
<glyph glyph-name="ccedilla" unicode="&#xe7;" horiz-adv-x="421" d="M391 112 C344 68 313 56 269 56 C215 56 118 97 118 241 C118 354 184 399 238 399 C277 399 309 387 341 358 C349 350 354 348 359 348 C373 348 394 371 395 391 C396 401 392 411 380 421 C360 437 318 448 290 448 C254 448 196 435 137 390 C73 341 37 272 37 195 C37 81 117 -8 233 -12 L204 -50 C186 -74 191 -87 215 -110 C226 -121 238 -132 238 -148 C238 -169 219 -192 179 -209 L190 -235 C259 -212 302 -174 302 -134 C302 -112 292 -93 265 -66 C249 -50 246 -43 258 -26 L271 -7 C321 4 368 40 409 90 L391 112 Z " />
<glyph glyph-name="egrave" unicode="&#xe8;" horiz-adv-x="425" d="M380 106 C343 72 306 56 265 56 C195 56 116 112 115 248 C235 252 361 262 377 265 C396 269 400 277 400 297 C400 374 333 448 250 448 L249 448 C198 448 144 420 103 375 C62 331 37 269 37 201 C37 88 109 -12 232 -12 C263 -12 332 6 395 84 L380 106 Z M226 411 C281 411 315 363 314 311 C314 297 308 292 290 292 C232 290 176 289 120 289 C135 369 180 411 225 411 L226 411 Z M266 499 C246 550 217 622 199 667 C184 669 134 659 125 654 L122 646 C149 610 196 545 239 485 L266 499 Z " />
<glyph glyph-name="eacute" unicode="&#xe9;" horiz-adv-x="425" d="M380 106 C343 72 306 56 265 56 C195 56 116 112 115 248 C235 252 361 262 377 265 C396 269 400 277 400 297 C400 374 333 448 250 448 L249 448 C198 448 144 420 103 375 C62 331 37 269 37 201 C37 88 109 -12 232 -12 C263 -12 332 6 395 84 L380 106 Z M226 411 C281 411 315 363 314 311 C314 297 308 292 290 292 C232 290 176 289 120 289 C135 369 180 411 225 411 L226 411 Z M342 660 L339 669 C327 671 269 662 260 658 C253 641 212 543 193 501 L219 488 L342 660 Z " />
<glyph glyph-name="ecircumflex" unicode="&#xea;" horiz-adv-x="425" d="M380 106 C343 72 306 56 265 56 C195 56 116 112 115 248 C235 252 361 262 377 265 C396 269 400 277 400 297 C400 374 333 448 250 448 L249 448 C198 448 144 420 103 375 C62 331 37 269 37 201 C37 88 109 -12 232 -12 C263 -12 332 6 395 84 L380 106 Z M226 411 C281 411 315 363 314 311 C314 297 308 292 290 292 C232 290 176 289 120 289 C135 369 180 411 225 411 L226 411 Z M341 501 C303 555 271 609 242 664 L217 664 C187 609 155 555 116 501 L140 484 C173 514 202 548 229 581 C255 548 284 514 316 484 L341 501 Z " />
<glyph glyph-name="edieresis" unicode="&#xeb;" horiz-adv-x="425" d="M380 106 C343 72 306 56 265 56 C195 56 116 112 115 248 C235 252 361 262 377 265 C396 269 400 277 400 297 C400 374 333 448 250 448 L249 448 C198 448 144 420 103 375 C62 331 37 269 37 201 C37 88 109 -12 232 -12 C263 -12 332 6 395 84 L380 106 Z M226 411 C281 411 315 363 314 311 C314 297 308 292 290 292 C232 290 176 289 120 289 C135 369 180 411 225 411 L226 411 Z M140 620 C115 620 93 598 93 570 C93 544 115 522 140 522 C167 522 188 544 188 570 C188 598 167 620 141 620 L140 620 Z M309 620 C284 620 262 598 262 570 C262 544 284 522 309 522 C336 522 357 544 357 570 C357 598 336 620 310 620 L309 620 Z " />
<glyph glyph-name="igrave" unicode="&#xec;" horiz-adv-x="268" d="M253 0 L253 26 C189 32 182 39 182 108 L182 450 C139 432 91 419 40 411 L40 387 C98 378 103 374 103 308 L103 108 C103 39 96 32 33 26 L33 0 L253 0 Z M168 501 C148 552 119 624 101 669 C86 671 36 661 27 656 L24 648 C51 612 98 547 141 487 L168 501 Z " />
<glyph glyph-name="iacute" unicode="&#xed;" horiz-adv-x="268" d="M253 0 L253 26 C189 32 182 39 182 108 L182 450 C139 432 91 419 40 411 L40 387 C98 378 103 374 103 308 L103 108 C103 39 96 32 33 26 L33 0 L253 0 Z M246 657 L243 666 C231 668 173 659 164 655 C157 638 116 540 97 498 L123 485 L246 657 Z " />
<glyph glyph-name="icircumflex" unicode="&#xee;" horiz-adv-x="268" d="M253 0 L253 26 C189 32 182 39 182 108 L182 450 C139 432 91 419 40 411 L40 387 C98 378 103 374 103 308 L103 108 C103 39 96 32 33 26 L33 0 L253 0 Z M244 501 C206 555 174 609 145 664 L120 664 C90 609 58 555 19 501 L43 484 C76 514 105 548 132 581 C158 548 187 514 219 484 L244 501 Z " />
<glyph glyph-name="idieresis" unicode="&#xef;" horiz-adv-x="268" d="M253 0 L253 26 C189 32 182 39 182 108 L182 450 C139 432 91 419 40 411 L40 387 C98 378 103 374 103 308 L103 108 C103 39 96 32 33 26 L33 0 L253 0 Z M46 620 C21 620 -1 598 -1 570 C-1 544 21 522 46 522 C73 522 94 544 94 570 C94 598 73 620 47 620 L46 620 Z M215 620 C190 620 168 598 168 570 C168 544 190 522 215 522 C242 522 263 544 263 570 C263 598 242 620 216 620 L215 620 Z " />
<glyph glyph-name="eth" unicode="&#xf0;" horiz-adv-x="505" d="M450 661 L434 692 L308 625 C242 679 158 708 90 712 C82 707 78 690 84 682 C138 674 201 647 257 595 L122 522 L138 491 L283 569 C315 532 343 480 355 424 C325 440 294 448 259 448 L258 448 C165 448 38 371 38 208 C38 102 118 -12 248 -12 C359 -12 467 74 467 267 C467 401 424 507 337 600 L450 661 Z M254 415 C293 415 325 400 349 376 C370 354 380 326 379 234 C378 69 322 22 265 22 C183 22 131 110 131 236 C131 344 181 415 253 415 L254 415 Z " />
<glyph glyph-name="ntilde" unicode="&#xf1;" horiz-adv-x="547" d="M524 0 L524 26 C466 32 460 36 460 104 L460 297 C460 393 411 448 331 448 C302 448 276 436 248 418 C223 401 201 386 181 371 L181 451 C137 431 90 419 42 410 L42 387 C96 377 102 374 102 310 L102 104 C102 38 97 33 29 26 L29 0 L246 0 L246 26 C187 32 181 36 181 104 L181 338 C211 364 250 389 290 389 C357 389 381 344 381 275 L381 109 C381 40 374 32 315 26 L315 0 L524 0 Z M222 612 C196 612 164 590 142 522 L168 505 C181 538 195 553 212 553 C227 553 240 548 257 538 C282 524 302 514 323 514 C348 514 379 531 402 604 L377 618 C364 589 351 573 334 573 C318 573 302 581 281 592 C252 607 239 612 223 612 L222 612 Z " />
<glyph glyph-name="ograve" unicode="&#xf2;" horiz-adv-x="510" d="M256 448 C165 448 37 373 37 208 C37 98 119 -12 256 -12 C355 -12 473 64 473 225 C473 348 381 448 257 448 L256 448 Z M245 415 C333 415 380 320 380 204 C380 66 329 21 267 21 C184 21 130 114 130 240 C130 353 184 415 244 415 L245 415 Z M295 499 C275 550 246 622 228 667 C213 669 163 659 154 654 L151 646 C178 610 225 545 268 485 L295 499 Z " />
<glyph glyph-name="oacute" unicode="&#xf3;" horiz-adv-x="510" d="M256 448 C165 448 37 373 37 208 C37 98 119 -12 256 -12 C355 -12 473 64 473 225 C473 348 381 448 257 448 L256 448 Z M245 415 C333 415 380 320 380 204 C380 66 329 21 267 21 C184 21 130 114 130 240 C130 353 184 415 244 415 L245 415 Z M368 657 L365 666 C353 668 295 659 286 655 C279 638 238 540 219 498 L245 485 L368 657 Z " />
<glyph glyph-name="ocircumflex" unicode="&#xf4;" horiz-adv-x="510" d="M256 448 C165 448 37 373 37 208 C37 98 119 -12 256 -12 C355 -12 473 64 473 225 C473 348 381 448 257 448 L256 448 Z M245 415 C333 415 380 320 380 204 C380 66 329 21 267 21 C184 21 130 114 130 240 C130 353 184 415 244 415 L245 415 Z M368 501 C330 555 298 609 269 664 L244 664 C214 609 182 555 143 501 L167 484 C200 514 229 548 256 581 C282 548 311 514 343 484 L368 501 Z " />
<glyph glyph-name="otilde" unicode="&#xf5;" horiz-adv-x="510" d="M256 448 C165 448 37 373 37 208 C37 98 119 -12 256 -12 C355 -12 473 64 473 225 C473 348 381 448 257 448 L256 448 Z M245 415 C333 415 380 320 380 204 C380 66 329 21 267 21 C184 21 130 114 130 240 C130 353 184 415 244 415 L245 415 Z M205 612 C179 612 147 590 125 522 L151 505 C164 538 178 553 195 553 C210 553 223 548 240 538 C265 524 285 514 306 514 C331 514 362 531 385 604 L360 618 C347 589 334 573 317 573 C301 573 285 581 264 592 C235 607 222 612 206 612 L205 612 Z " />
<glyph glyph-name="odieresis" unicode="&#xf6;" horiz-adv-x="510" d="M256 448 C165 448 37 373 37 208 C37 98 119 -12 256 -12 C355 -12 473 64 473 225 C473 348 381 448 257 448 L256 448 Z M245 415 C333 415 380 320 380 204 C380 66 329 21 267 21 C184 21 130 114 130 240 C130 353 184 415 244 415 L245 415 Z M170 620 C145 620 123 598 123 570 C123 544 145 522 170 522 C197 522 218 544 218 570 C218 598 197 620 171 620 L170 620 Z M339 620 C314 620 292 598 292 570 C292 544 314 522 339 522 C366 522 387 544 387 570 C387 598 366 620 340 620 L339 620 Z " />
<glyph glyph-name="divide" unicode="&#xf7;" horiz-adv-x="580" d="M292 354 C319 354 342 376 342 403 C342 429 319 452 292 452 C267 452 243 429 243 403 C243 376 267 354 291 354 L292 354 Z M529 229 L529 279 L51 279 L51 229 L529 229 Z M291 154 C263 154 241 133 241 105 C241 79 263 56 291 56 C315 56 340 79 340 105 C340 133 315 154 292 154 L291 154 Z " />
<glyph glyph-name="oslash" unicode="&#xf8;" horiz-adv-x="513" d="M432 453 L406 472 L369 418 C337 437 302 448 260 448 C167 448 37 372 37 209 C37 146 66 81 116 38 L79 -14 L104 -36 L143 19 C177 -1 215 -12 260 -12 C361 -12 476 69 476 227 C476 296 447 359 397 401 L432 453 Z M157 100 C137 134 126 180 126 233 C126 351 183 415 249 415 C285 415 319 397 338 371 L157 100 Z M358 340 C378 304 388 260 388 213 C388 75 330 21 269 21 C227 21 196 42 178 70 L358 340 Z " />
<glyph glyph-name="ugrave" unicode="&#xf9;" horiz-adv-x="531" d="M518 50 L491 51 C452 54 444 60 444 110 L444 443 C429 440 405 436 377 433 C348 431 314 428 287 427 L287 403 L323 397 C356 392 365 386 365 333 L365 99 C331 66 293 51 257 51 C212 51 169 75 169 164 L169 299 C169 365 169 412 172 443 C156 440 128 436 101 432 C75 430 50 428 29 427 L29 403 L57 397 C82 392 90 386 90 333 L90 137 C90 29 147 -12 214 -12 C241 -12 262 -4 291 13 C320 30 342 48 365 66 L365 -6 L371 -12 C390 -6 415 1 441 8 C468 15 496 21 518 24 L518 50 Z M293 501 C273 552 244 624 226 669 C211 671 161 661 152 656 L149 648 C176 612 223 547 266 487 L293 501 Z " />
<glyph glyph-name="uacute" unicode="&#xfa;" horiz-adv-x="531" d="M518 50 L491 51 C452 54 444 60 444 110 L444 443 C429 440 405 436 377 433 C348 431 314 428 287 427 L287 403 L323 397 C356 392 365 386 365 333 L365 99 C331 66 293 51 257 51 C212 51 169 75 169 164 L169 299 C169 365 169 412 172 443 C156 440 128 436 101 432 C75 430 50 428 29 427 L29 403 L57 397 C82 392 90 386 90 333 L90 137 C90 29 147 -12 214 -12 C241 -12 262 -4 291 13 C320 30 342 48 365 66 L365 -6 L371 -12 C390 -6 415 1 441 8 C468 15 496 21 518 24 L518 50 Z M375 657 L372 666 C360 668 302 659 293 655 C286 638 245 540 226 498 L252 485 L375 657 Z " />
<glyph glyph-name="ucircumflex" unicode="&#xfb;" horiz-adv-x="531" d="M518 50 L491 51 C452 54 444 60 444 110 L444 443 C429 440 405 436 377 433 C348 431 314 428 287 427 L287 403 L323 397 C356 392 365 386 365 333 L365 99 C331 66 293 51 257 51 C212 51 169 75 169 164 L169 299 C169 365 169 412 172 443 C156 440 128 436 101 432 C75 430 50 428 29 427 L29 403 L57 397 C82 392 90 386 90 333 L90 137 C90 29 147 -12 214 -12 C241 -12 262 -4 291 13 C320 30 342 48 365 66 L365 -6 L371 -12 C390 -6 415 1 441 8 C468 15 496 21 518 24 L518 50 Z M375 501 C337 555 305 609 276 664 L251 664 C221 609 189 555 150 501 L174 484 C207 514 236 548 263 581 C289 548 318 514 350 484 L375 501 Z " />
<glyph glyph-name="udieresis" unicode="&#xfc;" horiz-adv-x="531" d="M518 50 L491 51 C452 54 444 60 444 110 L444 443 C429 440 405 436 377 433 C348 431 314 428 287 427 L287 403 L323 397 C356 392 365 386 365 333 L365 99 C331 66 293 51 257 51 C212 51 169 75 169 164 L169 299 C169 365 169 412 172 443 C156 440 128 436 101 432 C75 430 50 428 29 427 L29 403 L57 397 C82 392 90 386 90 333 L90 137 C90 29 147 -12 214 -12 C241 -12 262 -4 291 13 C320 30 342 48 365 66 L365 -6 L371 -12 C390 -6 415 1 441 8 C468 15 496 21 518 24 L518 50 Z M173 620 C148 620 126 598 126 570 C126 544 148 522 173 522 C200 522 221 544 221 570 C221 598 200 620 174 620 L173 620 Z M342 620 C317 620 295 598 295 570 C295 544 317 522 342 522 C369 522 390 544 390 570 C390 598 369 620 343 620 L342 620 Z " />
<glyph glyph-name="yacute" unicode="&#xfd;" horiz-adv-x="459" d="M478 436 L297 436 L297 410 C355 402 361 391 349 353 C329 291 285 173 257 105 L167 355 C153 393 158 403 205 410 L204 436 L2 436 L2 410 C57 403 66 389 88 335 C117 264 162 143 202 29 C208 13 209 0 204 -15 C199 -29 191 -49 173 -84 C149 -129 130 -153 98 -173 C81 -184 73 -193 73 -209 C73 -233 101 -257 129 -257 C143 -257 156 -252 161 -232 C175 -179 197 -122 264 37 C333 202 364 285 390 338 C417 394 425 402 478 410 L478 436 Z M368 657 L365 666 C353 668 295 659 286 655 C279 638 238 540 219 498 L245 485 L368 657 Z " />
<glyph glyph-name="thorn" unicode="&#xfe;" horiz-adv-x="514" d="M156 712 C115 698 58 685 7 680 L7 655 C74 649 77 646 77 577 L77 -133 C77 -203 67 -208 5 -214 L5 -240 L245 -240 L245 -214 C165 -208 156 -202 156 -131 L156 8 C169 0 194 -10 226 -12 C361 12 476 110 476 260 C476 350 413 448 302 448 C289 448 277 445 267 440 C230 422 194 404 156 383 L156 712 Z M156 350 C186 371 222 389 255 389 C331 389 393 333 393 218 C393 89 323 39 254 39 C217 39 176 58 156 80 L156 350 Z " />
<glyph glyph-name="ydieresis" unicode="&#xff;" horiz-adv-x="459" d="M478 436 L297 436 L297 410 C355 402 361 391 349 353 C329 291 285 173 257 105 L167 355 C153 393 158 403 205 410 L204 436 L2 436 L2 410 C57 403 66 389 88 335 C117 264 162 143 202 29 C208 13 209 0 204 -15 C199 -29 191 -49 173 -84 C149 -129 130 -153 98 -173 C81 -184 73 -193 73 -209 C73 -233 101 -257 129 -257 C143 -257 156 -252 161 -232 C175 -179 197 -122 264 37 C333 202 364 285 390 338 C417 394 425 402 478 410 L478 436 Z M156 620 C131 620 109 598 109 570 C109 544 131 522 156 522 C183 522 204 544 204 570 C204 598 183 620 157 620 L156 620 Z M325 620 C300 620 278 598 278 570 C278 544 300 522 325 522 C352 522 373 544 373 570 C373 598 352 620 326 620 L325 620 Z " />
<glyph glyph-name="Amacron" unicode="&#x100;" horiz-adv-x="691" d="M673 0 L673 28 C608 35 594 44 563 130 C499 303 432 494 370 665 L339 656 L132 132 C98 43 84 37 20 28 L20 0 L238 0 L238 28 C162 36 154 45 175 109 C188 150 203 192 219 237 L432 237 C454 176 474 122 487 83 C500 44 491 36 428 28 L428 0 L673 0 Z M418 280 L234 280 C265 362 296 450 328 535 L330 535 L418 280 Z M468 716 L468 768 L245 768 L245 716 L468 716 Z " />
<glyph glyph-name="amacron" unicode="&#x101;" horiz-adv-x="439" d="M433 39 L423 65 C413 59 399 53 387 53 C370 53 352 68 352 113 L352 298 C352 351 342 391 307 421 C285 439 255 448 225 448 C168 435 104 398 76 378 C57 364 45 353 45 338 C45 315 70 296 88 296 C102 296 112 303 117 319 C126 349 134 371 147 384 C157 396 172 403 191 403 C242 403 275 363 275 290 L275 273 C253 255 180 228 120 208 C65 189 39 158 39 110 C39 47 88 -12 159 -12 C189 -12 237 25 277 52 C282 34 288 20 301 7 C312 -3 333 -12 348 -12 L433 39 Z M275 84 C256 65 221 48 195 48 C164 48 124 72 124 124 C124 161 146 179 185 197 C206 207 254 228 275 239 L275 84 Z M316 532 L316 586 L96 586 L96 532 L316 532 Z " />
<glyph glyph-name="Abreve" unicode="&#x102;" horiz-adv-x="691" d="M673 0 L673 28 C608 35 594 44 563 130 C499 303 432 494 370 665 L339 656 L132 132 C98 43 84 37 20 28 L20 0 L238 0 L238 28 C162 36 154 45 175 109 C188 150 203 192 219 237 L432 237 C454 176 474 122 487 83 C500 44 491 36 428 28 L428 0 L673 0 Z M418 280 L234 280 C265 362 296 450 328 535 L330 535 L418 280 Z M443 813 C434 778 409 752 356 752 C303 752 278 778 269 813 L239 813 C240 734 287 695 356 695 C424 695 471 734 473 813 L443 813 Z " />
<glyph glyph-name="abreve" unicode="&#x103;" horiz-adv-x="439" d="M433 39 L423 65 C413 59 399 53 387 53 C370 53 352 68 352 113 L352 298 C352 351 342 391 307 421 C285 439 255 448 225 448 C168 435 104 398 76 378 C57 364 45 353 45 338 C45 315 70 296 88 296 C102 296 112 303 117 319 C126 349 134 371 147 384 C157 396 172 403 191 403 C242 403 275 363 275 290 L275 273 C253 255 180 228 120 208 C65 189 39 158 39 110 C39 47 88 -12 159 -12 C189 -12 237 25 277 52 C282 34 288 20 301 7 C312 -3 333 -12 348 -12 L433 39 Z M275 84 C256 65 221 48 195 48 C164 48 124 72 124 124 C124 161 146 179 185 197 C206 207 254 228 275 239 L275 84 Z M288 636 C281 584 251 557 206 557 C163 557 133 584 126 636 L96 636 C96 532 148 499 206 499 L207 499 C266 499 318 532 318 636 L288 636 Z " />
<glyph glyph-name="Aogonek" unicode="&#x104;" horiz-adv-x="691" d="M673 0 L673 26 C608 33 595 44 563 129 C499 303 431 493 370 665 C359 662 349 659 339 656 C271 482 198 294 133 132 C97 43 83 36 20 27 L20 0 L238 0 L238 27 C162 35 153 44 175 108 C188 149 204 192 220 237 L431 237 C447 191 482 99 492 66 C498 48 496 40 486 30 C439 -16 373 -86 373 -153 C373 -194 396 -237 462 -237 C471 -237 486 -233 496 -227 L553 -193 L545 -168 C532 -174 513 -179 499 -179 C466 -179 441 -160 441 -124 C441 -86 475 -24 504 0 L673 0 Z M418 280 L234 280 C265 362 296 449 329 533 L331 533 L418 280 Z " />
<glyph glyph-name="aogonek" unicode="&#x105;" horiz-adv-x="439" d="M423 64 C413 59 399 54 387 54 C370 54 352 68 352 113 L352 300 C352 352 342 391 307 421 C286 439 256 448 226 448 C170 435 104 398 76 378 C57 364 45 352 45 338 C45 315 70 295 88 295 C102 295 113 302 118 318 C127 348 135 370 147 383 C157 395 173 404 193 404 C243 404 275 364 275 291 L275 273 C253 255 180 228 120 208 C65 189 39 158 39 110 C39 47 88 -12 159 -12 C188 -12 237 25 277 52 C283 23 305 4 321 -3 C258 -54 214 -107 214 -157 C214 -204 243 -234 298 -234 C307 -234 323 -229 334 -222 L385 -192 L377 -167 C363 -173 348 -177 335 -177 C303 -177 282 -163 282 -131 C282 -81 338 -20 384 9 C394 16 422 33 433 40 L423 64 Z M275 84 C256 66 222 48 196 48 C165 48 125 72 125 124 C125 161 147 180 186 198 C207 208 253 229 275 240 L275 84 Z " />
<glyph glyph-name="Cacute" unicode="&#x106;" horiz-adv-x="665" d="M614 175 C564 76 510 21 408 21 C256 21 146 149 146 336 C146 488 235 629 402 629 C510 629 570 586 597 480 L626 487 C620 541 614 582 606 638 C578 643 510 665 429 665 C206 665 44 527 44 316 C44 157 153 -15 402 -15 C474 -15 558 5 586 11 C604 45 629 119 643 165 L614 175 Z M516 771 C513 785 485 824 473 826 C427 796 370 758 316 724 L329 699 L514 763 L516 771 Z " />
<glyph glyph-name="cacute" unicode="&#x107;" horiz-adv-x="423" d="M390 111 C344 68 312 56 269 56 C212 56 118 102 118 240 C118 345 175 400 241 400 C277 400 312 387 342 359 C350 351 355 348 361 348 C372 348 394 370 394 391 C394 402 391 411 378 421 C362 435 329 448 288 448 L287 448 C250 448 190 431 138 391 C71 340 37 273 37 196 C37 89 112 -12 238 -12 C297 -12 363 32 407 90 L390 111 Z M352 657 L349 666 C337 668 279 659 270 655 C263 638 222 540 203 498 L229 485 L352 657 Z " />
<glyph glyph-name="Ccircumflex" unicode="&#x108;" horiz-adv-x="665" d="M614 175 C564 76 510 21 408 21 C256 21 146 149 146 336 C146 488 235 629 402 629 C510 629 570 586 597 480 L626 487 C620 541 614 582 606 638 C578 643 510 665 429 665 C206 665 44 527 44 316 C44 157 153 -15 402 -15 C474 -15 558 5 586 11 C604 45 629 119 643 165 L614 175 Z M533 723 C490 756 446 789 408 830 L386 830 C348 789 303 756 260 723 L276 698 C316 715 357 738 396 760 C436 737 477 715 517 698 L533 723 Z " />
<glyph glyph-name="ccircumflex" unicode="&#x109;" horiz-adv-x="423" d="M390 111 C344 68 312 56 269 56 C212 56 118 102 118 240 C118 345 175 400 241 400 C277 400 312 387 342 359 C350 351 355 348 361 348 C372 348 394 370 394 391 C394 402 391 411 378 421 C362 435 329 448 288 448 L287 448 C250 448 190 431 138 391 C71 340 37 273 37 196 C37 89 112 -12 238 -12 C297 -12 363 32 407 90 L390 111 Z M358 501 C320 555 288 609 259 664 L234 664 C204 609 172 555 133 501 L157 484 C190 514 219 548 246 581 C272 548 301 514 333 484 L358 501 Z " />
<glyph glyph-name="Cdotaccent" unicode="&#x10a;" horiz-adv-x="665" d="M614 175 C564 76 510 21 408 21 C256 21 146 149 146 336 C146 488 235 629 402 629 C510 629 570 586 597 480 L626 487 C620 541 614 582 606 638 C578 643 510 665 429 665 C206 665 44 527 44 316 C44 157 153 -15 402 -15 C474 -15 558 5 586 11 C604 45 629 119 643 165 L614 175 Z M399 811 C370 811 348 788 348 758 C348 730 370 707 399 707 C428 707 450 730 450 758 C450 788 428 811 400 811 L399 811 Z " />
<glyph glyph-name="cdotaccent" unicode="&#x10b;" horiz-adv-x="423" d="M390 111 C344 68 312 56 269 56 C212 56 118 102 118 240 C118 345 175 400 241 400 C277 400 312 387 342 359 C350 351 355 348 361 348 C372 348 394 370 394 391 C394 402 391 411 378 421 C362 435 329 448 288 448 L287 448 C250 448 190 431 138 391 C71 340 37 273 37 196 C37 89 112 -12 238 -12 C297 -12 363 32 407 90 L390 111 Z M243 630 C217 630 193 607 193 578 C193 551 217 527 243 527 C272 527 294 551 294 578 C294 607 272 630 244 630 L243 630 Z " />
<glyph glyph-name="Ccaron" unicode="&#x10c;" horiz-adv-x="665" d="M614 175 C564 76 510 21 408 21 C256 21 146 149 146 336 C146 488 235 629 402 629 C510 629 570 586 597 480 L626 487 C620 541 614 582 606 638 C578 643 510 665 429 665 C206 665 44 527 44 316 C44 157 153 -15 402 -15 C474 -15 558 5 586 11 C604 45 629 119 643 165 L614 175 Z M519 836 C478 819 437 797 398 774 C358 799 317 819 277 836 L261 811 C304 778 347 745 387 703 L409 703 C448 745 491 778 534 811 L519 836 Z " />
<glyph glyph-name="ccaron" unicode="&#x10d;" horiz-adv-x="423" d="M390 111 C344 68 312 56 269 56 C212 56 118 102 118 240 C118 345 175 400 241 400 C277 400 312 387 342 359 C350 351 355 348 361 348 C372 348 394 370 394 391 C394 402 391 411 378 421 C362 435 329 448 288 448 L287 448 C250 448 190 431 138 391 C71 340 37 273 37 196 C37 89 112 -12 238 -12 C297 -12 363 32 407 90 L390 111 Z M336 668 C303 636 275 604 248 571 C222 604 194 636 161 668 L136 651 C174 597 206 544 235 488 L260 488 C290 544 322 597 361 651 L336 668 Z " />
<glyph glyph-name="Dcaron" unicode="&#x10e;" horiz-adv-x="735" d="M43 650 L43 622 C120 616 128 612 128 526 L128 124 C128 39 120 33 34 27 L34 0 L270 0 C392 0 492 25 567 83 C643 141 690 230 690 350 C690 444 655 517 605 565 C543 625 450 650 323 650 L43 650 Z M213 547 C213 587 217 598 226 604 C236 612 262 617 304 617 C371 617 429 604 474 576 C554 529 592 439 592 336 C592 176 505 36 319 36 C246 36 213 55 213 131 L213 547 Z M465 821 C424 804 383 782 344 759 C304 784 263 804 223 821 L207 796 C250 763 293 730 333 688 L355 688 C394 730 437 763 480 796 L465 821 Z " />
<glyph glyph-name="dcaron" unicode="&#x10f;" horiz-adv-x="528" d="M517 51 L485 54 C448 58 441 64 441 115 L441 712 C404 700 337 684 285 678 L285 653 C357 648 362 645 362 579 L362 436 C339 445 309 448 295 448 C159 448 38 339 38 201 C38 62 143 -12 223 -12 C234 -12 261 -6 301 17 L362 53 L362 -12 C420 9 495 22 517 26 L517 51 Z M362 85 C338 67 301 51 266 51 C201 51 128 109 128 228 C128 372 212 410 259 410 C296 410 338 394 362 359 L362 85 Z M526 712 C509 712 491 699 491 675 C491 661 498 652 504 650 C523 644 536 633 536 611 C536 587 522 570 491 554 L501 527 C548 541 587 573 587 632 C587 679 559 712 527 712 L526 712 Z " />
<glyph glyph-name="Dcroat" unicode="&#x110;" horiz-adv-x="737" d="M53 650 L53 623 C131 617 139 610 139 513 L139 361 L37 361 L37 320 L139 320 L139 137 C139 42 131 33 45 28 L45 0 L274 0 C393 0 490 25 567 83 C645 141 692 230 692 350 C692 443 656 517 606 565 C541 627 447 650 329 650 L53 650 Z M224 320 L381 320 L381 361 L224 361 L224 564 C224 592 228 602 236 607 C246 612 270 617 315 617 C380 617 437 603 477 578 C554 530 592 443 592 335 C592 175 508 37 321 37 C237 37 224 65 224 132 L224 320 Z " />
<glyph glyph-name="dcroat" unicode="&#x111;" horiz-adv-x="526" d="M517 50 L484 53 C447 57 440 62 440 116 L440 533 L516 533 L516 570 L440 570 L440 713 C403 701 340 686 288 679 L288 655 C355 649 360 646 361 591 C361 584 361 577 361 570 L229 570 L229 533 L361 533 L361 436 C338 445 308 448 293 448 C157 448 38 335 38 201 C39 62 144 -12 223 -12 C235 -12 259 -6 298 17 L361 54 L361 -12 C419 9 495 22 517 26 L517 50 Z M361 85 C337 67 301 50 266 50 C202 50 128 107 128 227 C128 375 219 411 259 411 C293 411 336 394 361 359 L361 85 Z " />
<glyph glyph-name="Emacron" unicode="&#x112;" horiz-adv-x="568" d="M517 162 C503 122 484 88 467 68 C445 42 417 34 341 34 C291 34 256 34 237 47 C219 59 213 81 213 128 L213 317 L308 317 C395 317 402 311 415 240 L444 240 L444 431 L415 431 C403 364 398 356 307 356 L213 356 L213 584 C213 613 215 616 246 616 L322 616 C394 616 421 609 435 587 C448 566 458 544 467 502 L496 506 C493 558 488 626 488 650 L42 650 L42 623 C120 616 128 612 128 523 L128 125 C128 43 120 35 29 28 L29 0 L511 0 C520 31 540 125 546 158 L517 162 Z M411 716 L411 768 L188 768 L188 716 L411 716 Z " />
<glyph glyph-name="emacron" unicode="&#x113;" horiz-adv-x="425" d="M380 106 C343 72 306 56 265 56 C195 56 116 112 115 248 C235 252 361 262 377 265 C396 269 400 277 400 297 C400 374 333 448 250 448 L249 448 C198 448 144 420 103 375 C62 331 37 269 37 201 C37 88 109 -12 232 -12 C263 -12 332 6 395 84 L380 106 Z M226 411 C281 411 315 363 314 311 C314 297 308 292 290 292 C232 290 176 289 120 289 C135 369 180 411 225 411 L226 411 Z M340 532 L340 586 L120 586 L120 532 L340 532 Z " />
<glyph glyph-name="Ebreve" unicode="&#x114;" horiz-adv-x="568" d="M517 162 C503 122 484 88 467 68 C445 42 417 34 341 34 C291 34 256 34 237 47 C219 59 213 81 213 128 L213 317 L308 317 C395 317 402 311 415 240 L444 240 L444 431 L415 431 C403 364 398 356 307 356 L213 356 L213 584 C213 613 215 616 246 616 L322 616 C394 616 421 609 435 587 C448 566 458 544 467 502 L496 506 C493 558 488 626 488 650 L42 650 L42 623 C120 616 128 612 128 523 L128 125 C128 43 120 35 29 28 L29 0 L511 0 C520 31 540 125 546 158 L517 162 Z M387 813 C378 778 353 752 300 752 C247 752 222 778 213 813 L183 813 C184 734 231 695 300 695 C368 695 415 734 417 813 L387 813 Z " />
<glyph glyph-name="ebreve" unicode="&#x115;" horiz-adv-x="425" d="M380 106 C343 72 306 56 265 56 C195 56 116 112 115 248 C235 252 361 262 377 265 C396 269 400 277 400 297 C400 374 333 448 250 448 L249 448 C198 448 144 420 103 375 C62 331 37 269 37 201 C37 88 109 -12 232 -12 C263 -12 332 6 395 84 L380 106 Z M226 411 C281 411 315 363 314 311 C314 297 308 292 290 292 C232 290 176 289 120 289 C135 369 180 411 225 411 L226 411 Z M314 636 C307 584 277 557 232 557 C189 557 159 584 152 636 L122 636 C122 532 174 499 232 499 L233 499 C292 499 344 532 344 636 L314 636 Z " />
<glyph glyph-name="Edotaccent" unicode="&#x116;" horiz-adv-x="568" d="M517 162 C503 122 484 88 467 68 C445 42 417 34 341 34 C291 34 256 34 237 47 C219 59 213 81 213 128 L213 317 L308 317 C395 317 402 311 415 240 L444 240 L444 431 L415 431 C403 364 398 356 307 356 L213 356 L213 584 C213 613 215 616 246 616 L322 616 C394 616 421 609 435 587 C448 566 458 544 467 502 L496 506 C493 558 488 626 488 650 L42 650 L42 623 C120 616 128 612 128 523 L128 125 C128 43 120 35 29 28 L29 0 L511 0 C520 31 540 125 546 158 L517 162 Z M299 807 C270 807 248 784 248 754 C248 726 270 703 299 703 C328 703 350 726 350 754 C350 784 328 807 300 807 L299 807 Z " />
<glyph glyph-name="edotaccent" unicode="&#x117;" horiz-adv-x="425" d="M380 106 C343 72 306 56 265 56 C195 56 116 112 115 248 C235 252 361 262 377 265 C396 269 400 277 400 297 C400 374 333 448 250 448 L249 448 C198 448 144 420 103 375 C62 331 37 269 37 201 C37 88 109 -12 232 -12 C263 -12 332 6 395 84 L380 106 Z M226 411 C281 411 315 363 314 311 C314 297 308 292 290 292 C232 290 176 289 120 289 C135 369 180 411 225 411 L226 411 Z M228 623 C202 623 178 600 178 571 C178 544 202 520 228 520 C257 520 279 544 279 571 C279 600 257 623 229 623 L228 623 Z " />
<glyph glyph-name="Eogonek" unicode="&#x118;" horiz-adv-x="568" d="M517 163 C503 126 485 89 468 69 C446 43 415 34 341 34 C291 34 257 34 237 47 C219 59 213 84 213 131 L213 319 L311 319 C399 319 402 315 415 244 L444 244 L444 431 L415 431 C403 364 401 359 310 359 L213 359 L213 583 C213 612 216 615 246 615 L318 615 C390 615 414 609 431 589 C449 569 458 546 467 503 L497 507 C492 558 487 625 486 650 L42 650 L42 622 C120 615 128 609 128 519 L128 128 C128 42 120 35 29 28 L29 0 L434 0 C376 -47 324 -110 324 -162 C324 -204 348 -237 408 -237 C417 -237 436 -231 446 -226 L498 -194 L491 -168 C473 -176 456 -179 443 -179 C416 -179 393 -167 393 -134 C393 -96 426 -41 474 0 L511 0 C520 31 541 124 546 158 L517 163 Z " />
<glyph glyph-name="eogonek" unicode="&#x119;" horiz-adv-x="424" d="M265 -6 C210 -52 163 -108 163 -162 C163 -197 189 -234 246 -234 C254 -234 274 -229 282 -223 L338 -188 L330 -163 C313 -172 292 -177 279 -177 C252 -177 232 -162 232 -133 C232 -82 292 -9 342 32 C357 44 374 61 395 85 L379 106 C341 70 305 55 264 55 C195 55 116 111 115 248 C235 252 361 262 377 265 C396 269 400 277 400 297 C400 374 332 448 249 448 L248 448 C199 448 145 421 101 373 C59 329 36 269 36 201 C36 88 108 -12 231 -12 C241 -11 255 -7 264 -4 L265 -6 Z M226 412 C280 412 315 362 314 310 C314 296 308 292 290 292 C234 291 176 289 120 289 C132 368 180 412 225 412 L226 412 Z " />
<glyph glyph-name="Ecaron" unicode="&#x11a;" horiz-adv-x="568" d="M517 162 C503 122 484 88 467 68 C445 42 417 34 341 34 C291 34 256 34 237 47 C219 59 213 81 213 128 L213 317 L308 317 C395 317 402 311 415 240 L444 240 L444 431 L415 431 C403 364 398 356 307 356 L213 356 L213 584 C213 613 215 616 246 616 L322 616 C394 616 421 609 435 587 C448 566 458 544 467 502 L496 506 C493 558 488 626 488 650 L42 650 L42 623 C120 616 128 612 128 523 L128 125 C128 43 120 35 29 28 L29 0 L511 0 C520 31 540 125 546 158 L517 162 Z M416 822 C375 805 334 783 295 760 C255 785 214 805 174 822 L158 797 C201 764 244 731 284 689 L306 689 C345 731 388 764 431 797 L416 822 Z " />
<glyph glyph-name="ecaron" unicode="&#x11b;" horiz-adv-x="425" d="M380 106 C343 72 306 56 265 56 C195 56 116 112 115 248 C235 252 361 262 377 265 C396 269 400 277 400 297 C400 374 333 448 250 448 L249 448 C198 448 144 420 103 375 C62 331 37 269 37 201 C37 88 109 -12 232 -12 C263 -12 332 6 395 84 L380 106 Z M226 411 C281 411 315 363 314 311 C314 297 308 292 290 292 C232 290 176 289 120 289 C135 369 180 411 225 411 L226 411 Z M318 664 C285 632 257 600 230 567 C204 600 176 632 143 664 L118 647 C156 593 188 540 217 484 L242 484 C272 540 304 593 343 647 L318 664 Z " />
<glyph glyph-name="Gcircumflex" unicode="&#x11c;" horiz-adv-x="715" d="M692 302 L438 302 L438 274 C537 266 543 260 543 188 L543 103 C543 61 531 48 511 37 C489 26 458 20 424 20 C231 20 146 188 146 333 C146 517 258 630 411 630 C507 630 582 597 606 474 L634 480 C627 546 622 601 619 636 C586 644 510 665 426 665 C230 665 44 552 44 321 C44 122 191 -15 411 -15 C491 -15 573 7 635 21 C629 49 628 81 628 116 L628 202 C628 260 632 266 692 274 L692 302 Z M538 716 C495 749 451 782 413 823 L391 823 C353 782 308 749 265 716 L281 691 C321 708 362 731 401 753 C441 730 482 708 522 691 L538 716 Z " />
<glyph glyph-name="gcircumflex" unicode="&#x11d;" horiz-adv-x="468" d="M463 436 C426 430 375 424 327 422 C297 438 264 448 231 448 L230 448 C153 448 51 395 51 282 C51 214 94 168 139 149 C123 129 91 103 51 88 C50 78 53 60 62 46 C75 25 100 2 136 -9 C112 -28 73 -59 53 -79 C38 -94 29 -113 29 -135 C30 -192 91 -257 203 -257 C336 -257 452 -160 452 -59 C452 39 371 59 309 59 C275 59 240 58 203 58 C158 58 140 77 140 96 C140 110 157 129 170 138 C186 135 205 133 221 133 C306 133 396 185 396 292 C396 327 384 359 366 381 L423 378 C439 386 459 412 468 428 L463 436 Z M220 417 C277 417 314 361 314 283 C314 204 275 166 231 165 C176 165 137 220 137 298 C137 375 177 417 219 417 L220 417 Z M242 -11 C285 -11 314 -14 339 -24 C367 -35 384 -61 384 -95 C384 -157 335 -206 240 -206 C166 -206 108 -165 108 -110 C108 -82 128 -54 154 -32 C172 -17 195 -11 241 -11 L242 -11 Z M337 509 C299 563 267 617 238 672 L213 672 C183 617 151 563 112 509 L136 492 C169 522 198 556 225 589 C251 556 280 522 312 492 L337 509 Z " />
<glyph glyph-name="Gbreve" unicode="&#x11e;" horiz-adv-x="715" d="M692 302 L438 302 L438 274 C537 266 543 260 543 188 L543 103 C543 61 531 48 511 37 C489 26 458 20 424 20 C231 20 146 188 146 333 C146 517 258 630 411 630 C507 630 582 597 606 474 L634 480 C627 546 622 601 619 636 C586 644 510 665 426 665 C230 665 44 552 44 321 C44 122 191 -15 411 -15 C491 -15 573 7 635 21 C629 49 628 81 628 116 L628 202 C628 260 632 266 692 274 L692 302 Z M479 821 C470 786 445 760 392 760 C339 760 314 786 305 821 L275 821 C276 742 323 703 392 703 C460 703 507 742 509 821 L479 821 Z " />
<glyph glyph-name="gbreve" unicode="&#x11f;" horiz-adv-x="468" d="M463 436 C426 430 375 424 327 422 C297 438 264 448 231 448 L230 448 C153 448 51 395 51 282 C51 214 94 168 139 149 C123 129 91 103 51 88 C50 78 53 60 62 46 C75 25 100 2 136 -9 C112 -28 73 -59 53 -79 C38 -94 29 -113 29 -135 C30 -192 91 -257 203 -257 C336 -257 452 -160 452 -59 C452 39 371 59 309 59 C275 59 240 58 203 58 C158 58 140 77 140 96 C140 110 157 129 170 138 C186 135 205 133 221 133 C306 133 396 185 396 292 C396 327 384 359 366 381 L423 378 C439 386 459 412 468 428 L463 436 Z M220 417 C277 417 314 361 314 283 C314 204 275 166 231 165 C176 165 137 220 137 298 C137 375 177 417 219 417 L220 417 Z M242 -11 C285 -11 314 -14 339 -24 C367 -35 384 -61 384 -95 C384 -157 335 -206 240 -206 C166 -206 108 -165 108 -110 C108 -82 128 -54 154 -32 C172 -17 195 -11 241 -11 L242 -11 Z M305 636 C298 584 268 557 223 557 C180 557 150 584 143 636 L113 636 C113 532 165 499 223 499 L224 499 C283 499 335 532 335 636 L305 636 Z " />
<glyph glyph-name="Gdotaccent" unicode="&#x120;" horiz-adv-x="715" d="M692 302 L438 302 L438 274 C537 266 543 260 543 188 L543 103 C543 61 531 48 511 37 C489 26 458 20 424 20 C231 20 146 188 146 333 C146 517 258 630 411 630 C507 630 582 597 606 474 L634 480 C627 546 622 601 619 636 C586 644 510 665 426 665 C230 665 44 552 44 321 C44 122 191 -15 411 -15 C491 -15 573 7 635 21 C629 49 628 81 628 116 L628 202 C628 260 632 266 692 274 L692 302 Z M399 809 C370 809 348 786 348 756 C348 728 370 705 399 705 C428 705 450 728 450 756 C450 786 428 809 400 809 L399 809 Z " />
<glyph glyph-name="gdotaccent" unicode="&#x121;" horiz-adv-x="468" d="M463 436 C426 430 375 424 327 422 C297 438 264 448 231 448 L230 448 C153 448 51 395 51 282 C51 214 94 168 139 149 C123 129 91 103 51 88 C50 78 53 60 62 46 C75 25 100 2 136 -9 C112 -28 73 -59 53 -79 C38 -94 29 -113 29 -135 C30 -192 91 -257 203 -257 C336 -257 452 -160 452 -59 C452 39 371 59 309 59 C275 59 240 58 203 58 C158 58 140 77 140 96 C140 110 157 129 170 138 C186 135 205 133 221 133 C306 133 396 185 396 292 C396 327 384 359 366 381 L423 378 C439 386 459 412 468 428 L463 436 Z M220 417 C277 417 314 361 314 283 C314 204 275 166 231 165 C176 165 137 220 137 298 C137 375 177 417 219 417 L220 417 Z M242 -11 C285 -11 314 -14 339 -24 C367 -35 384 -61 384 -95 C384 -157 335 -206 240 -206 C166 -206 108 -165 108 -110 C108 -82 128 -54 154 -32 C172 -17 195 -11 241 -11 L242 -11 Z M225 623 C199 623 175 600 175 571 C175 544 199 520 225 520 C254 520 276 544 276 571 C276 600 254 623 226 623 L225 623 Z " />
<glyph glyph-name="Gcommaaccent" unicode="&#x122;" horiz-adv-x="715" d="M692 302 L438 302 L438 274 C537 266 543 260 543 188 L543 103 C543 61 531 48 511 37 C489 26 458 20 424 20 C231 20 146 188 146 333 C146 517 258 630 411 630 C507 630 582 597 606 474 L634 480 C627 546 622 601 619 636 C586 644 510 665 426 665 C230 665 44 552 44 321 C44 122 191 -15 411 -15 C491 -15 573 7 635 21 C629 49 628 81 628 116 L628 202 C628 260 632 266 692 274 L692 302 Z M395 -46 C375 -46 354 -59 354 -83 C354 -97 361 -104 369 -107 C394 -113 414 -126 414 -147 C414 -171 391 -188 354 -203 L363 -231 C420 -217 469 -185 469 -125 C469 -78 433 -46 396 -46 L395 -46 Z " />
<glyph glyph-name="gcommaaccent" unicode="&#x123;" horiz-adv-x="468" d="M463 436 C426 430 375 424 327 422 C297 438 264 448 231 448 L230 448 C153 448 51 395 51 282 C51 214 94 168 139 149 C123 129 91 103 51 88 C50 78 53 60 62 46 C75 25 100 2 136 -9 C112 -28 73 -59 53 -79 C38 -94 29 -113 29 -135 C30 -192 91 -257 203 -257 C336 -257 452 -160 452 -59 C452 39 371 59 309 59 C275 59 240 58 203 58 C158 58 140 77 140 96 C140 110 157 129 170 138 C186 135 205 133 221 133 C306 133 396 185 396 292 C396 327 384 359 366 381 L423 378 C439 386 459 412 468 428 L463 436 Z M220 417 C277 417 314 361 314 283 C314 204 275 166 231 165 C176 165 137 220 137 298 C137 375 177 417 219 417 L220 417 Z M242 -11 C285 -11 314 -14 339 -24 C367 -35 384 -61 384 -95 C384 -157 335 -206 240 -206 C166 -206 108 -165 108 -110 C108 -82 128 -54 154 -32 C172 -17 195 -11 241 -11 L242 -11 Z M238 529 C259 529 280 542 280 566 C280 581 273 588 265 590 C240 596 219 609 219 630 C219 654 242 672 280 688 L271 715 C213 700 163 668 163 609 C163 561 200 529 237 529 L238 529 Z " />
<glyph glyph-name="Hcircumflex" unicode="&#x124;" horiz-adv-x="766" d="M729 650 L468 650 L468 622 C546 615 554 610 554 527 L554 365 L213 365 L213 527 C213 610 221 616 297 622 L297 650 L38 650 L38 622 C120 616 128 611 128 527 L128 123 C128 39 120 34 40 28 L40 0 L303 0 L303 28 C221 34 213 40 213 123 L213 322 L554 322 L554 123 C554 39 546 34 460 28 L460 0 L728 0 L728 28 C647 34 639 39 639 123 L639 527 C639 610 647 615 729 622 L729 650 Z M519 709 C476 742 432 775 394 816 L372 816 C334 775 289 742 246 709 L262 684 C302 701 343 724 382 746 C422 723 463 701 503 684 L519 709 Z " />
<glyph glyph-name="hcircumflex" unicode="&#x125;" horiz-adv-x="534" d="M513 0 L513 26 C455 31 447 37 447 103 L447 278 C447 397 390 448 309 448 C255 448 202 411 166 375 L166 712 C127 700 67 684 19 677 L19 653 C85 647 87 643 87 580 L87 103 C87 37 79 31 19 26 L18 0 L231 0 L231 26 C171 32 166 39 166 103 L166 340 C194 372 232 391 270 391 C337 391 368 350 368 268 L368 103 C368 38 360 32 302 26 L302 0 L513 0 Z M253 749 C210 782 166 815 128 856 L106 856 C68 815 23 782 -20 749 L-4 724 C36 741 77 764 116 786 C156 763 197 741 237 724 L253 749 Z " />
<glyph glyph-name="Hbar" unicode="&#x126;" horiz-adv-x="766" d="M727 471 L727 508 L639 508 L639 526 C639 610 647 615 729 622 L729 650 L468 650 L468 622 C546 615 554 611 554 525 L554 508 L213 508 L213 526 C213 611 221 616 297 622 L297 650 L38 650 L38 622 C120 616 128 611 128 526 L128 508 L40 508 L40 471 L128 471 L128 129 C128 42 120 34 40 28 L40 0 L303 0 L303 28 C221 34 213 42 213 129 L213 310 L554 310 L554 129 C554 42 546 34 460 28 L460 0 L728 0 L728 28 C647 34 639 42 639 129 L639 471 L727 471 Z M554 352 L213 352 L213 471 L554 471 L554 352 Z " />
<glyph glyph-name="hbar" unicode="&#x127;" horiz-adv-x="533" d="M513 0 L513 26 C455 31 447 38 447 104 L447 283 C447 396 392 450 310 448 C255 447 202 414 166 375 L166 535 L321 535 L321 572 L166 572 L166 716 C129 705 82 694 42 689 L42 665 C82 660 87 656 87 623 L87 572 L18 572 L18 535 L87 535 L87 106 C87 39 79 31 20 26 L20 0 L231 0 L231 26 C173 32 166 39 166 105 L166 340 C193 373 233 391 271 391 C338 391 368 350 368 269 L368 104 C368 39 361 32 303 26 L303 0 L513 0 Z " />
<glyph glyph-name="Itilde" unicode="&#x128;" horiz-adv-x="341" d="M303 0 L303 28 C221 34 213 39 213 125 L213 525 C213 610 221 616 303 622 L303 650 L38 650 L38 622 C120 616 128 610 128 525 L128 125 C128 40 120 34 38 28 L38 0 L303 0 Z M118 788 C94 788 63 769 38 706 L62 689 C77 717 91 733 110 733 C127 733 138 727 154 719 C181 706 202 697 224 697 C251 697 284 715 306 782 L281 796 C268 767 254 753 235 753 C217 753 202 759 180 769 C151 783 137 788 119 788 L118 788 Z " />
<glyph glyph-name="itilde" unicode="&#x129;" horiz-adv-x="268" d="M253 0 L253 26 C189 32 182 39 182 108 L182 450 C139 432 91 419 40 411 L40 387 C98 378 103 374 103 308 L103 108 C103 39 96 32 33 26 L33 0 L253 0 Z M84 612 C58 612 26 590 4 522 L30 505 C43 538 57 553 74 553 C89 553 102 548 119 538 C144 524 164 514 185 514 C210 514 241 531 264 604 L239 618 C226 589 213 573 196 573 C180 573 164 581 143 592 C114 607 101 612 85 612 L84 612 Z " />
<glyph glyph-name="Imacron" unicode="&#x12a;" horiz-adv-x="341" d="M303 0 L303 28 C221 34 213 39 213 125 L213 525 C213 610 221 616 303 622 L303 650 L38 650 L38 622 C120 616 128 610 128 525 L128 125 C128 40 120 34 38 28 L38 0 L303 0 Z M282 716 L282 768 L59 768 L59 716 L282 716 Z " />
<glyph glyph-name="imacron" unicode="&#x12b;" horiz-adv-x="268" d="M253 0 L253 26 C189 32 182 39 182 108 L182 450 C139 432 91 419 40 411 L40 387 C98 378 103 374 103 308 L103 108 C103 39 96 32 33 26 L33 0 L253 0 Z M239 532 L239 586 L19 586 L19 532 L239 532 Z " />
<glyph glyph-name="Ibreve" unicode="&#x12c;" horiz-adv-x="341" d="M303 0 L303 28 C221 34 213 39 213 125 L213 525 C213 610 221 616 303 622 L303 650 L38 650 L38 622 C120 616 128 610 128 525 L128 125 C128 40 120 34 38 28 L38 0 L303 0 Z M257 813 C248 778 223 752 170 752 C117 752 92 778 83 813 L53 813 C54 734 101 695 170 695 C238 695 285 734 287 813 L257 813 Z " />
<glyph glyph-name="ibreve" unicode="&#x12d;" horiz-adv-x="268" d="M253 0 L253 26 C189 32 182 39 182 108 L182 450 C139 432 91 419 40 411 L40 387 C98 378 103 374 103 308 L103 108 C103 39 96 32 33 26 L33 0 L253 0 Z M210 636 C203 584 173 557 128 557 C85 557 55 584 48 636 L18 636 C18 532 70 499 128 499 L129 499 C188 499 240 532 240 636 L210 636 Z " />
<glyph glyph-name="Iogonek" unicode="&#x12e;" horiz-adv-x="341" d="M303 0 L303 27 C221 33 213 41 213 127 L213 522 C213 609 221 617 303 623 L303 650 L38 650 L38 623 C120 617 128 609 128 522 L128 127 C128 40 120 33 38 27 L38 0 C77 0 116 0 155 0 C125 -48 87 -103 87 -156 C87 -197 112 -237 175 -237 C184 -237 204 -232 214 -226 L270 -192 L262 -167 C247 -174 226 -180 213 -180 C179 -180 154 -160 154 -124 C154 -89 169 -42 189 0 L303 0 Z " />
<glyph glyph-name="iogonek" unicode="&#x12f;" horiz-adv-x="268" d="M136 652 C110 652 86 629 86 599 C86 573 110 549 136 549 C165 549 187 573 187 600 C187 629 165 652 137 652 L136 652 Z M252 0 L252 26 C188 32 181 38 181 107 L181 450 C137 432 89 419 39 411 L39 387 C97 378 102 374 102 308 L102 107 C102 38 95 32 32 26 L32 0 L126 0 C98 -43 60 -103 60 -153 C60 -202 89 -233 146 -233 C155 -233 173 -227 182 -221 L234 -191 L225 -166 C211 -172 195 -177 181 -177 C149 -177 125 -160 125 -119 C125 -83 139 -42 159 0 L252 0 Z " />
<glyph glyph-name="Idotaccent" unicode="&#x130;" horiz-adv-x="341" d="M303 0 L303 28 C221 34 213 39 213 125 L213 525 C213 610 221 616 303 622 L303 650 L38 650 L38 622 C120 616 128 610 128 525 L128 125 C128 40 120 34 38 28 L38 0 L303 0 Z M171 807 C142 807 120 784 120 754 C120 726 142 703 171 703 C200 703 222 726 222 754 C222 784 200 807 172 807 L171 807 Z " />
<glyph glyph-name="dotlessi" unicode="&#x131;" horiz-adv-x="268" d="M253 0 L253 26 C189 32 182 39 182 108 L182 450 C139 432 91 419 40 411 L40 387 C98 378 103 374 103 308 L103 108 C103 39 96 32 33 26 L33 0 L253 0 Z " />
<glyph glyph-name="IJ" unicode="&#x132;" horiz-adv-x="669" d="M303 0 L303 28 C221 34 213 39 213 125 L213 525 C213 610 221 616 303 622 L303 650 L38 650 L38 622 C120 616 128 610 128 525 L128 125 C128 40 120 34 38 28 L38 0 L303 0 Z M644 650 L385 650 L385 622 C466 616 474 609 474 525 L474 184 C474 100 472 42 464 -6 C453 -63 424 -109 368 -137 L380 -165 C406 -157 439 -138 473 -107 C539 -46 559 23 559 151 L559 525 C559 609 567 616 644 622 L644 650 Z " />
<glyph glyph-name="ij" unicode="&#x133;" horiz-adv-x="516" d="M135 651 C109 651 85 628 85 598 C85 572 109 548 135 548 C164 548 186 572 186 599 C186 628 164 651 136 651 L135 651 Z M252 0 L252 26 C188 32 181 38 181 106 L181 450 C138 432 90 419 39 411 L39 387 C99 378 102 373 102 312 L102 106 C102 38 95 32 32 26 L32 0 L252 0 Z M391 651 C364 651 341 629 341 599 C341 572 364 548 391 548 C419 548 441 572 441 599 C441 629 419 651 392 651 L391 651 Z M290 388 C352 379 357 375 357 308 L357 113 C357 22 355 -38 349 -80 C343 -115 336 -137 324 -152 C310 -170 284 -182 251 -190 C237 -193 230 -201 230 -213 C230 -237 253 -257 266 -257 C274 -257 282 -254 292 -246 C315 -226 378 -150 413 -50 C432 3 436 45 436 111 L436 450 C393 432 342 419 290 411 L290 388 Z " />
<glyph glyph-name="Jcircumflex" unicode="&#x134;" horiz-adv-x="329" d="M303 650 L44 650 L44 622 C125 616 133 609 133 525 L133 184 C133 100 131 42 123 -6 C112 -63 83 -109 27 -137 L39 -165 C65 -157 98 -138 132 -107 C198 -46 218 23 218 151 L218 525 C218 609 226 616 303 622 L303 650 Z M309 709 C266 742 222 775 184 816 L162 816 C124 775 79 742 36 709 L52 684 C92 701 133 724 172 746 C212 723 253 701 293 684 L309 709 Z " />
<glyph glyph-name="jcircumflex" unicode="&#x135;" horiz-adv-x="258" d="M237 528 C201 580 170 633 141 687 L118 687 C90 633 58 580 21 528 L43 513 C75 543 104 576 130 608 C155 576 185 543 216 513 L237 528 Z M33 390 C97 382 103 377 103 308 L103 112 C103 22 101 -39 95 -82 C89 -116 82 -140 70 -155 C56 -173 31 -185 -2 -193 C-16 -196 -22 -204 -22 -216 C-22 -240 -1 -258 12 -258 C20 -258 29 -255 38 -247 C61 -227 124 -151 159 -51 C178 2 182 44 182 110 L182 450 C139 432 86 419 33 411 L33 390 Z " />
<glyph glyph-name="Kcommaaccent" unicode="&#x136;" horiz-adv-x="673" d="M667 0 L667 28 C619 34 599 43 546 100 C496 154 386 277 311 372 C378 440 449 512 488 547 C551 605 575 615 650 622 L650 650 L410 650 L410 622 L433 619 C478 614 479 604 449 568 C404 513 337 443 282 390 C254 364 234 350 212 345 L212 520 C212 609 222 616 299 622 L299 650 L41 650 L41 622 C120 616 128 611 128 520 L128 129 C128 41 120 34 44 28 L44 0 L304 0 L304 28 C221 34 212 41 212 129 L212 318 C229 321 242 318 266 291 C355 185 436 87 514 0 L667 0 Z M362 -22 C342 -22 321 -35 321 -59 C321 -73 328 -80 336 -83 C361 -89 381 -102 381 -123 C381 -147 358 -164 321 -179 L330 -207 C387 -193 436 -161 436 -101 C436 -54 400 -22 363 -22 L362 -22 Z " />
<glyph glyph-name="kcommaaccent" unicode="&#x137;" horiz-adv-x="496" d="M510 0 L510 26 C472 28 451 44 414 81 C381 114 283 229 258 264 C302 314 319 333 344 359 C383 396 404 406 473 417 L473 442 L269 433 L269 407 C317 402 320 394 299 363 C280 336 250 297 228 275 C213 259 195 247 165 241 L165 712 C126 699 69 682 21 677 L21 653 C82 648 87 642 87 576 L87 104 C87 40 81 32 14 26 L14 0 L237 0 L237 26 C173 32 165 38 165 104 L165 215 C171 217 177 218 181 217 C190 218 198 212 212 196 C268 129 331 49 378 -1 L510 0 Z M264 -32 C244 -32 223 -45 223 -69 C223 -83 230 -90 238 -93 C263 -99 283 -112 283 -133 C283 -157 260 -174 223 -189 L232 -217 C289 -203 338 -171 338 -111 C338 -64 302 -32 265 -32 L264 -32 Z " />
<glyph glyph-name="kgreenlandic" unicode="&#x138;" horiz-adv-x="525" d="M520 0 L520 26 C479 31 465 40 427 77 C394 111 332 182 277 256 C326 304 363 340 390 362 C433 398 458 405 506 410 L506 436 L309 436 L309 410 L326 407 C354 403 355 388 338 365 C318 340 281 300 235 259 C218 245 201 237 185 234 L185 450 C138 438 94 430 39 425 L39 400 C100 395 106 387 106 322 L106 107 C106 37 99 31 36 26 L36 0 L254 0 L254 26 C192 31 185 38 185 108 L185 206 C200 212 212 213 229 190 C272 135 364 21 384 0 L520 0 Z " />
<glyph glyph-name="Lacute" unicode="&#x139;" horiz-adv-x="538" d="M495 163 C480 117 462 85 444 65 C421 39 387 34 332 34 C290 34 256 36 236 47 C218 57 213 77 213 131 L213 526 C213 611 222 616 301 622 L301 650 L40 650 L40 622 C122 616 128 611 128 526 L128 126 C128 41 120 34 36 28 L36 0 L489 0 C498 31 519 126 525 157 L495 163 Z M319 756 C316 770 288 809 276 811 C230 781 173 743 119 709 L132 684 L317 748 L319 756 Z " />
<glyph glyph-name="lacute" unicode="&#x13a;" horiz-adv-x="253" d="M238 0 L238 26 C174 32 166 38 166 104 L166 712 C132 700 70 683 18 677 L18 653 C81 647 87 645 87 577 L87 104 C87 38 78 32 15 26 L15 0 L238 0 Z M250 805 C247 819 219 858 207 860 C161 830 104 792 50 758 L63 733 L248 797 L250 805 Z " />
<glyph glyph-name="Lcommaaccent" unicode="&#x13b;" horiz-adv-x="538" d="M495 163 C480 117 462 85 444 65 C421 39 387 34 332 34 C290 34 256 36 236 47 C218 57 213 77 213 131 L213 526 C213 611 222 616 301 622 L301 650 L40 650 L40 622 C122 616 128 611 128 526 L128 126 C128 41 120 34 36 28 L36 0 L489 0 C498 31 519 126 525 157 L495 163 Z M293 -34 C273 -34 252 -47 252 -71 C252 -85 259 -92 267 -95 C292 -101 312 -114 312 -135 C312 -159 289 -176 252 -191 L261 -219 C318 -205 367 -173 367 -113 C367 -66 331 -34 294 -34 L293 -34 Z " />
<glyph glyph-name="lcommaaccent" unicode="&#x13c;" horiz-adv-x="253" d="M238 0 L238 26 C174 32 166 38 166 104 L166 712 C132 700 70 683 18 677 L18 653 C81 647 87 645 87 577 L87 104 C87 38 78 32 15 26 L15 0 L238 0 Z M115 -34 C95 -34 74 -47 74 -71 C74 -85 81 -92 89 -95 C114 -101 134 -114 134 -135 C134 -159 111 -176 74 -191 L83 -219 C140 -205 189 -173 189 -113 C189 -66 153 -34 116 -34 L115 -34 Z " />
<glyph glyph-name="Lcaron" unicode="&#x13d;" horiz-adv-x="538" d="M495 163 C480 117 462 85 444 65 C421 39 387 34 332 34 C290 34 256 36 236 47 C218 57 213 77 213 131 L213 526 C213 611 222 616 301 622 L301 650 L40 650 L40 622 C122 616 128 611 128 526 L128 126 C128 41 120 34 36 28 L36 0 L489 0 C498 31 519 126 525 157 L495 163 Z M384 656 C367 656 349 643 349 619 C349 605 356 596 362 594 C381 588 394 577 394 555 C394 531 380 514 349 498 L359 471 C406 485 445 517 445 576 C445 623 417 656 385 656 L384 656 Z " />
<glyph glyph-name="lcaron" unicode="&#x13e;" horiz-adv-x="253" d="M238 0 L238 26 C174 32 166 38 166 104 L166 712 C132 700 70 683 18 677 L18 653 C81 647 87 645 87 577 L87 104 C87 38 78 32 15 26 L15 0 L238 0 Z M248 712 C231 712 213 699 213 675 C213 661 220 652 226 650 C245 644 258 633 258 611 C258 587 244 570 213 554 L223 527 C270 541 309 573 309 632 C309 679 281 712 249 712 L248 712 Z " />
<glyph glyph-name="Ldot" unicode="&#x13f;" horiz-adv-x="538" d="M495 163 C480 117 462 85 444 65 C421 39 387 34 332 34 C290 34 256 36 236 47 C218 57 213 77 213 131 L213 526 C213 611 222 616 301 622 L301 650 L40 650 L40 622 C122 616 128 611 128 526 L128 126 C128 41 120 34 36 28 L36 0 L489 0 C498 31 519 126 525 157 L495 163 Z M361 406 C332 406 310 383 310 353 C310 325 332 302 361 302 C390 302 412 325 412 353 C412 383 390 406 362 406 L361 406 Z " />
<glyph glyph-name="ldot" unicode="&#x140;" horiz-adv-x="271" d="M262 407 C236 407 213 385 213 356 C213 329 236 306 262 306 C290 306 311 329 311 356 C311 385 290 407 263 407 L262 407 Z M238 0 L238 26 C174 32 166 38 166 105 L166 713 C132 701 72 684 19 678 L19 654 C83 649 87 646 87 577 L87 105 C87 38 80 32 17 26 L17 0 L238 0 Z " />
<glyph glyph-name="Lslash" unicode="&#x141;" horiz-adv-x="550" d="M506 165 C490 119 473 84 455 65 C433 39 401 34 342 34 C302 34 267 36 248 47 C229 57 225 82 225 140 L225 336 L350 431 L350 478 L225 383 L225 521 C225 607 233 616 313 622 L313 650 L52 650 L52 622 C132 616 140 607 140 521 L140 323 L42 249 L42 203 L140 276 L140 130 C140 42 132 33 46 27 L46 0 L500 0 C510 31 530 131 536 160 L506 165 Z " />
<glyph glyph-name="lslash" unicode="&#x142;" horiz-adv-x="273" d="M271 462 L271 508 L180 431 L180 715 C147 702 81 686 31 680 L31 657 C95 650 101 646 101 583 L101 368 L27 307 L27 261 L101 322 L101 108 C101 38 92 32 27 26 L27 0 L254 0 L254 26 C189 32 180 38 180 108 L180 386 L271 462 Z " />
<glyph glyph-name="Nacute" unicode="&#x143;" horiz-adv-x="743" d="M719 650 L483 650 L483 622 C553 618 576 605 581 560 C585 532 588 486 588 394 L588 149 L585 149 L167 650 L20 650 L20 622 C67 618 88 610 109 585 C127 561 129 557 129 484 L129 264 C129 173 126 124 123 93 C118 44 92 32 35 28 L35 0 L272 0 L272 28 C204 32 181 44 176 95 C173 124 170 172 170 264 L170 515 L172 515 L598 -9 L629 -9 L629 394 C629 487 631 532 635 563 C639 606 663 619 719 622 L719 650 Z M509 756 C506 770 478 809 466 811 C420 781 363 743 309 709 L322 684 L507 748 L509 756 Z " />
<glyph glyph-name="nacute" unicode="&#x144;" horiz-adv-x="547" d="M524 0 L524 26 C466 32 460 36 460 104 L460 297 C460 393 411 448 331 448 C302 448 276 436 248 418 C223 401 201 386 181 371 L181 451 C137 431 90 419 42 410 L42 387 C96 377 102 374 102 310 L102 104 C102 38 97 33 29 26 L29 0 L246 0 L246 26 C187 32 181 36 181 104 L181 338 C211 364 250 389 290 389 C357 389 381 344 381 275 L381 109 C381 40 374 32 315 26 L315 0 L524 0 Z M390 657 L387 666 C375 668 317 659 308 655 C301 638 260 540 241 498 L267 485 L390 657 Z " />
<glyph glyph-name="Ncommaaccent" unicode="&#x145;" horiz-adv-x="743" d="M719 650 L483 650 L483 622 C553 618 576 605 581 560 C585 532 588 486 588 394 L588 149 L585 149 L167 650 L20 650 L20 622 C67 618 88 610 109 585 C127 561 129 557 129 484 L129 264 C129 173 126 124 123 93 C118 44 92 32 35 28 L35 0 L272 0 L272 28 C204 32 181 44 176 95 C173 124 170 172 170 264 L170 515 L172 515 L598 -9 L629 -9 L629 394 C629 487 631 532 635 563 C639 606 663 619 719 622 L719 650 Z M385 -13 C365 -13 344 -26 344 -50 C344 -64 351 -71 359 -74 C384 -80 404 -93 404 -114 C404 -138 381 -155 344 -170 L353 -198 C410 -184 459 -152 459 -92 C459 -45 423 -13 386 -13 L385 -13 Z " />
<glyph glyph-name="ncommaaccent" unicode="&#x146;" horiz-adv-x="547" d="M524 0 L524 26 C466 32 460 36 460 104 L460 297 C460 393 411 448 331 448 C302 448 276 436 248 418 C223 401 201 386 181 371 L181 451 C137 431 90 419 42 410 L42 387 C96 377 102 374 102 310 L102 104 C102 38 97 33 29 26 L29 0 L246 0 L246 26 C187 32 181 36 181 104 L181 338 C211 364 250 389 290 389 C357 389 381 344 381 275 L381 109 C381 40 374 32 315 26 L315 0 L524 0 Z M283 -43 C263 -43 242 -56 242 -80 C242 -94 249 -101 257 -104 C282 -110 302 -123 302 -144 C302 -168 279 -185 242 -200 L251 -228 C308 -214 357 -182 357 -122 C357 -75 321 -43 284 -43 L283 -43 Z " />
<glyph glyph-name="Ncaron" unicode="&#x147;" horiz-adv-x="743" d="M719 650 L483 650 L483 622 C553 618 576 605 581 560 C585 532 588 486 588 394 L588 149 L585 149 L167 650 L20 650 L20 622 C67 618 88 610 109 585 C127 561 129 557 129 484 L129 264 C129 173 126 124 123 93 C118 44 92 32 35 28 L35 0 L272 0 L272 28 C204 32 181 44 176 95 C173 124 170 172 170 264 L170 515 L172 515 L598 -9 L629 -9 L629 394 C629 487 631 532 635 563 C639 606 663 619 719 622 L719 650 Z M496 806 C455 789 414 767 375 744 C335 769 294 789 254 806 L238 781 C281 748 324 715 364 673 L386 673 C425 715 468 748 511 781 L496 806 Z " />
<glyph glyph-name="ncaron" unicode="&#x148;" horiz-adv-x="547" d="M524 0 L524 26 C466 32 460 36 460 104 L460 297 C460 393 411 448 331 448 C302 448 276 436 248 418 C223 401 201 386 181 371 L181 451 C137 431 90 419 42 410 L42 387 C96 377 102 374 102 310 L102 104 C102 38 97 33 29 26 L29 0 L246 0 L246 26 C187 32 181 36 181 104 L181 338 C211 364 250 389 290 389 C357 389 381 344 381 275 L381 109 C381 40 374 32 315 26 L315 0 L524 0 Z M361 670 C328 638 300 606 273 573 C247 606 219 638 186 670 L161 653 C199 599 231 546 260 490 L285 490 C315 546 347 599 386 653 L361 670 Z " />
<glyph glyph-name="napostrophe" unicode="&#x149;" horiz-adv-x="543" d="M51 710 C35 710 10 699 10 674 C10 663 16 657 23 656 C51 650 79 632 79 599 C79 562 52 541 10 523 L18 501 C75 514 140 551 140 617 C140 676 92 710 52 710 L51 710 Z M521 0 L521 23 C466 29 458 35 458 102 L458 297 C458 393 409 448 329 448 C300 448 274 436 246 418 C221 401 198 385 178 370 L178 451 C134 432 85 418 37 410 L37 389 C93 379 99 376 99 311 L99 103 C99 35 87 29 26 23 L26 0 L243 0 L243 23 C186 29 178 35 178 102 L178 335 C208 362 249 389 289 389 C356 389 379 343 379 274 L379 109 C379 35 370 29 313 23 L313 0 L521 0 Z " />
<glyph glyph-name="Eng" unicode="&#x14a;" horiz-adv-x="736" d="M712 650 L475 650 L475 622 C545 618 568 606 573 560 C576 532 580 482 580 389 L580 151 L577 151 L167 650 L20 650 L20 622 C67 618 88 610 109 585 C127 561 129 552 129 479 L129 269 C129 177 126 124 122 93 C117 44 92 31 35 28 L35 0 L273 0 L273 28 C205 32 183 44 177 95 C174 124 171 177 171 269 L171 512 L173 512 L578 9 C576 -114 535 -145 502 -145 C482 -145 472 -140 462 -140 C451 -140 448 -150 448 -159 C448 -187 470 -211 493 -211 C530 -211 561 -191 586 -147 C617 -93 623 -14 622 102 L622 389 C622 482 625 532 628 563 C633 606 656 619 712 622 L712 650 Z " />
<glyph glyph-name="eng" unicode="&#x14b;" horiz-adv-x="541" d="M180 451 C136 431 88 419 40 410 L40 387 C97 377 101 373 101 308 L101 105 C101 38 95 33 28 26 L28 0 L247 0 L247 26 C185 32 180 39 180 105 L180 336 C210 362 250 387 290 387 C356 387 380 341 380 272 L380 32 C380 -55 374 -90 360 -113 C350 -128 337 -132 322 -132 C303 -132 284 -122 272 -122 C262 -122 259 -132 259 -142 C259 -166 280 -191 299 -191 C324 -191 358 -170 389 -130 C414 -99 432 -66 443 -24 C455 19 459 68 459 120 L459 297 C459 392 410 448 330 448 C301 448 276 436 248 418 C223 401 200 385 180 370 L180 451 Z " />
<glyph glyph-name="Omacron" unicode="&#x14c;" horiz-adv-x="747" d="M380 665 C170 665 44 498 44 318 C44 125 188 -15 369 -15 C552 -15 703 117 703 333 C703 533 550 665 381 665 L380 665 Z M360 629 C491 629 601 517 601 306 C601 114 502 21 390 21 C249 21 146 158 146 346 C146 534 248 629 359 629 L360 629 Z M487 717 L487 769 L264 769 L264 717 L487 717 Z " />
<glyph glyph-name="omacron" unicode="&#x14d;" horiz-adv-x="510" d="M256 448 C165 448 37 373 37 208 C37 98 119 -12 256 -12 C355 -12 473 64 473 225 C473 348 381 448 257 448 L256 448 Z M245 415 C333 415 380 320 380 204 C380 66 329 21 267 21 C184 21 130 114 130 240 C130 353 184 415 244 415 L245 415 Z M365 532 L365 586 L145 586 L145 532 L365 532 Z " />
<glyph glyph-name="Obreve" unicode="&#x14e;" horiz-adv-x="747" d="M380 665 C170 665 44 498 44 318 C44 125 188 -15 369 -15 C552 -15 703 117 703 333 C703 533 550 665 381 665 L380 665 Z M360 629 C491 629 601 517 601 306 C601 114 502 21 390 21 C249 21 146 158 146 346 C146 534 248 629 359 629 L360 629 Z M455 819 C446 784 421 758 368 758 C315 758 290 784 281 819 L251 819 C252 740 299 701 368 701 C436 701 483 740 485 819 L455 819 Z " />
<glyph glyph-name="obreve" unicode="&#x14f;" horiz-adv-x="510" d="M256 448 C165 448 37 373 37 208 C37 98 119 -12 256 -12 C355 -12 473 64 473 225 C473 348 381 448 257 448 L256 448 Z M245 415 C333 415 380 320 380 204 C380 66 329 21 267 21 C184 21 130 114 130 240 C130 353 184 415 244 415 L245 415 Z M330 636 C323 584 293 557 248 557 C205 557 175 584 168 636 L138 636 C138 532 190 499 248 499 L249 499 C308 499 360 532 360 636 L330 636 Z " />
<glyph glyph-name="Ohungarumlaut" unicode="&#x150;" horiz-adv-x="747" d="M380 665 C170 665 44 498 44 318 C44 125 188 -15 369 -15 C552 -15 703 117 703 333 C703 533 550 665 381 665 L380 665 Z M360 629 C491 629 601 517 601 306 C601 114 502 21 390 21 C249 21 146 158 146 346 C146 534 248 629 359 629 L360 629 Z M550 797 L549 809 C536 816 497 824 477 822 C463 787 445 742 427 699 L452 685 L550 797 Z M408 797 L407 808 C396 815 355 824 336 822 C322 788 303 743 285 699 L310 685 L408 797 Z " />
<glyph glyph-name="ohungarumlaut" unicode="&#x151;" horiz-adv-x="510" d="M256 448 C165 448 37 373 37 208 C37 98 119 -12 256 -12 C355 -12 473 64 473 225 C473 348 381 448 257 448 L256 448 Z M245 415 C333 415 380 320 380 204 C380 66 329 21 267 21 C184 21 130 114 130 240 C130 353 184 415 244 415 L245 415 Z M281 657 L278 666 C265 668 211 658 201 654 C198 638 170 542 156 493 L184 484 L281 657 Z M419 657 L416 666 C403 668 349 658 339 654 C336 639 308 543 294 493 L322 484 L419 657 Z " />
<glyph glyph-name="OE" unicode="&#x152;" horiz-adv-x="973" d="M920 161 C906 122 891 88 872 67 C849 42 822 35 745 35 C697 35 662 35 642 48 C624 60 618 81 618 133 L618 317 L717 317 C802 317 805 308 818 240 L848 240 L848 430 L818 430 C806 367 803 357 717 357 L618 357 L618 585 C618 613 620 615 650 615 L727 615 C800 615 826 608 840 588 C853 570 860 549 870 505 L900 508 C896 558 892 625 891 650 L615 650 C585 650 556 652 522 655 C488 658 463 661 427 661 C212 661 45 526 45 317 C45 147 160 -11 406 -11 C437 -11 464 -8 507 -4 C541 -1 569 0 609 0 L915 0 C924 33 944 125 950 157 L920 161 Z M533 110 C533 66 523 51 498 38 C479 29 449 24 417 24 C220 24 147 174 147 330 C147 511 247 626 416 626 C461 626 495 617 515 605 C529 597 533 582 533 546 L533 110 Z " />
<glyph glyph-name="oe" unicode="&#x153;" horiz-adv-x="770" d="M252 448 C167 448 37 373 37 208 C37 101 117 -12 251 -12 C309 -12 372 17 414 75 C446 22 504 -12 576 -12 C608 -12 680 6 737 84 L722 106 C683 72 649 55 609 55 C531 55 451 109 453 247 C577 251 707 261 722 264 C739 268 744 273 744 298 C744 375 676 448 590 448 C526 448 458 404 421 348 C388 408 327 448 253 448 L252 448 Z M565 411 C621 411 658 368 658 312 C658 295 652 289 638 289 C576 287 517 287 459 286 C469 368 519 411 564 411 L565 411 Z M244 414 C330 414 376 325 376 207 C376 72 323 22 266 22 C183 22 131 112 131 241 C131 351 183 414 243 414 L244 414 Z " />
<glyph glyph-name="Racute" unicode="&#x154;" horiz-adv-x="621" d="M631 18 C609 24 585 35 559 65 C534 91 514 117 478 169 C448 214 406 281 389 313 C462 346 516 399 516 485 C516 545 490 590 449 616 C412 641 363 650 290 650 L42 650 L42 622 C120 615 128 612 128 526 L128 125 C128 40 120 34 38 28 L38 0 L300 0 L300 28 C221 34 212 41 212 125 L212 284 L244 284 C295 284 312 272 329 244 C359 195 395 133 430 84 C475 19 516 -3 592 -7 C603 -8 615 -8 627 -8 L631 18 Z M212 316 L212 563 C212 590 215 602 223 607 C231 613 248 617 277 617 C352 617 423 577 423 469 C423 414 407 375 368 345 C343 324 310 316 260 316 L212 316 Z M433 756 C430 770 402 809 390 811 C344 781 287 743 233 709 L246 684 L431 748 L433 756 Z " />
<glyph glyph-name="racute" unicode="&#x155;" horiz-adv-x="371" d="M181 342 L181 450 C133 430 89 418 40 410 L40 387 C98 380 102 376 102 310 L102 103 C102 38 95 32 33 26 L33 0 L263 0 L263 26 C186 32 181 38 181 104 L181 286 C203 342 235 371 261 371 C277 371 289 365 304 351 C310 345 318 344 330 349 C349 358 362 378 362 398 C362 421 338 448 304 448 C256 448 213 392 183 342 L181 342 Z M324 657 L321 666 C309 668 251 659 242 655 C235 638 194 540 175 498 L201 485 L324 657 Z " />
<glyph glyph-name="Rcommaaccent" unicode="&#x156;" horiz-adv-x="621" d="M631 18 C609 24 585 35 559 65 C534 91 514 117 478 169 C448 214 406 281 389 313 C462 346 516 399 516 485 C516 545 490 590 449 616 C412 641 363 650 290 650 L42 650 L42 622 C120 615 128 612 128 526 L128 125 C128 40 120 34 38 28 L38 0 L300 0 L300 28 C221 34 212 41 212 125 L212 284 L244 284 C295 284 312 272 329 244 C359 195 395 133 430 84 C475 19 516 -3 592 -7 C603 -8 615 -8 627 -8 L631 18 Z M212 316 L212 563 C212 590 215 602 223 607 C231 613 248 617 277 617 C352 617 423 577 423 469 C423 414 407 375 368 345 C343 324 310 316 260 316 L212 316 Z M342 -21 C322 -21 301 -34 301 -58 C301 -72 308 -79 316 -82 C341 -88 361 -101 361 -122 C361 -146 338 -163 301 -178 L310 -206 C367 -192 416 -160 416 -100 C416 -53 380 -21 343 -21 L342 -21 Z " />
<glyph glyph-name="rcommaaccent" unicode="&#x157;" horiz-adv-x="371" d="M181 342 L181 450 C133 430 89 418 40 410 L40 387 C98 380 102 376 102 310 L102 103 C102 38 95 32 33 26 L33 0 L263 0 L263 26 C186 32 181 38 181 104 L181 286 C203 342 235 371 261 371 C277 371 289 365 304 351 C310 345 318 344 330 349 C349 358 362 378 362 398 C362 421 338 448 304 448 C256 448 213 392 183 342 L181 342 Z M140 -37 C120 -37 99 -50 99 -74 C99 -88 106 -95 114 -98 C139 -104 159 -117 159 -138 C159 -162 136 -179 99 -194 L108 -222 C165 -208 214 -176 214 -116 C214 -69 178 -37 141 -37 L140 -37 Z " />
<glyph glyph-name="Rcaron" unicode="&#x158;" horiz-adv-x="621" d="M631 18 C609 24 585 35 559 65 C534 91 514 117 478 169 C448 214 406 281 389 313 C462 346 516 399 516 485 C516 545 490 590 449 616 C412 641 363 650 290 650 L42 650 L42 622 C120 615 128 612 128 526 L128 125 C128 40 120 34 38 28 L38 0 L300 0 L300 28 C221 34 212 41 212 125 L212 284 L244 284 C295 284 312 272 329 244 C359 195 395 133 430 84 C475 19 516 -3 592 -7 C603 -8 615 -8 627 -8 L631 18 Z M212 316 L212 563 C212 590 215 602 223 607 C231 613 248 617 277 617 C352 617 423 577 423 469 C423 414 407 375 368 345 C343 324 310 316 260 316 L212 316 Z M406 821 C365 804 324 782 285 759 C245 784 204 804 164 821 L148 796 C191 763 234 730 274 688 L296 688 C335 730 378 763 421 796 L406 821 Z " />
<glyph glyph-name="rcaron" unicode="&#x159;" horiz-adv-x="371" d="M181 342 L181 450 C133 430 89 418 40 410 L40 387 C98 380 102 376 102 310 L102 103 C102 38 95 32 33 26 L33 0 L263 0 L263 26 C186 32 181 38 181 104 L181 286 C203 342 235 371 261 371 C277 371 289 365 304 351 C310 345 318 344 330 349 C349 358 362 378 362 398 C362 421 338 448 304 448 C256 448 213 392 183 342 L181 342 Z M296 664 C263 632 235 600 208 567 C182 600 154 632 121 664 L96 647 C134 593 166 540 195 484 L220 484 C250 540 282 593 321 647 L296 664 Z " />
<glyph glyph-name="Sacute" unicode="&#x15a;" horiz-adv-x="474" d="M409 504 C401 567 396 606 392 642 C354 654 312 665 266 665 C137 665 60 583 60 487 C60 374 161 325 225 290 C300 250 355 215 355 141 C355 68 311 21 235 21 C131 21 86 122 71 183 L41 176 C48 128 61 42 68 21 C78 16 93 9 118 0 C142 -7 175 -15 216 -15 C349 -15 438 69 438 174 C438 287 344 333 265 374 C186 414 138 449 138 522 C138 576 172 631 249 631 C336 631 363 562 380 499 L409 504 Z M382 764 C379 778 351 817 339 819 C293 789 236 751 182 717 L195 692 L380 756 L382 764 Z " />
<glyph glyph-name="sacute" unicode="&#x15b;" horiz-adv-x="367" d="M319 324 C317 349 306 408 297 430 C277 439 250 448 209 448 C117 448 57 388 57 318 C57 242 122 209 182 181 C232 158 261 135 261 91 C261 48 227 21 190 21 C130 21 85 79 68 144 L41 140 C41 104 51 36 58 22 C75 7 121 -12 172 -12 C252 -12 337 35 337 126 C337 195 286 230 210 261 C166 280 126 303 126 347 C126 387 152 416 191 416 C240 416 274 377 294 317 L319 324 Z M302 657 L299 666 C287 668 229 659 220 655 C213 638 172 540 153 498 L179 485 L302 657 Z " />
<glyph glyph-name="Scircumflex" unicode="&#x15c;" horiz-adv-x="474" d="M409 504 C401 567 396 606 392 642 C354 654 312 665 266 665 C137 665 60 583 60 487 C60 374 161 325 225 290 C300 250 355 215 355 141 C355 68 311 21 235 21 C131 21 86 122 71 183 L41 176 C48 128 61 42 68 21 C78 16 93 9 118 0 C142 -7 175 -15 216 -15 C349 -15 438 69 438 174 C438 287 344 333 265 374 C186 414 138 449 138 522 C138 576 172 631 249 631 C336 631 363 562 380 499 L409 504 Z M386 715 C343 748 299 781 261 822 L239 822 C201 781 156 748 113 715 L129 690 C169 707 210 730 249 752 C289 729 330 707 370 690 L386 715 Z " />
<glyph glyph-name="scircumflex" unicode="&#x15d;" horiz-adv-x="367" d="M319 324 C317 349 306 408 297 430 C277 439 250 448 209 448 C117 448 57 388 57 318 C57 242 122 209 182 181 C232 158 261 135 261 91 C261 48 227 21 190 21 C130 21 85 79 68 144 L41 140 C41 104 51 36 58 22 C75 7 121 -12 172 -12 C252 -12 337 35 337 126 C337 195 286 230 210 261 C166 280 126 303 126 347 C126 387 152 416 191 416 C240 416 274 377 294 317 L319 324 Z M301 504 C263 558 231 612 202 667 L177 667 C147 612 115 558 76 504 L100 487 C133 517 162 551 189 584 C215 551 244 517 276 487 L301 504 Z " />
<glyph glyph-name="&amp;#x15e;" unicode="&#x15e;" horiz-adv-x="477" d="M411 503 C403 566 397 607 393 642 C355 654 314 665 268 665 C140 665 62 584 62 489 C62 375 166 324 228 292 C297 255 356 220 356 141 C356 67 311 21 239 21 C129 21 85 122 68 183 L40 177 C46 126 59 42 67 21 C77 16 92 9 119 0 C144 -7 181 -14 220 -15 C226 -15 232 -15 238 -14 L210 -50 C191 -76 198 -90 222 -114 C233 -125 246 -137 246 -152 C246 -173 226 -193 184 -211 L197 -237 C266 -216 310 -178 310 -137 C310 -115 299 -96 272 -69 C255 -53 254 -46 265 -29 L279 -6 C376 14 439 85 439 176 C439 291 345 339 268 376 C188 415 141 451 141 525 C141 579 177 632 251 632 C338 632 365 562 382 499 L411 503 Z " />
<glyph glyph-name="&amp;#xf6c1;" unicode="&#xf6c1;" horiz-adv-x="477" d="M411 503 C403 566 397 607 393 642 C355 654 314 665 268 665 C140 665 62 584 62 489 C62 375 166 324 228 292 C297 255 356 220 356 141 C356 67 311 21 239 21 C129 21 85 122 68 183 L40 177 C46 126 59 42 67 21 C77 16 92 9 119 0 C144 -7 181 -14 220 -15 C226 -15 232 -15 238 -14 L210 -50 C191 -76 198 -90 222 -114 C233 -125 246 -137 246 -152 C246 -173 226 -193 184 -211 L197 -237 C266 -216 310 -178 310 -137 C310 -115 299 -96 272 -69 C255 -53 254 -46 265 -29 L279 -6 C376 14 439 85 439 176 C439 291 345 339 268 376 C188 415 141 451 141 525 C141 579 177 632 251 632 C338 632 365 562 382 499 L411 503 Z " />
<glyph glyph-name="&amp;#x15f;" unicode="&#x15f;" horiz-adv-x="366" d="M320 324 C318 349 306 407 297 430 C277 439 250 448 209 448 C116 448 57 388 57 319 C57 245 122 209 181 184 C233 159 261 134 261 90 C261 45 226 21 190 21 C130 21 84 81 66 147 L39 143 C40 106 49 41 55 25 C72 8 121 -12 170 -12 C176 -12 181 -12 186 -11 L155 -51 C136 -74 142 -89 167 -112 C179 -123 190 -134 190 -149 C190 -169 172 -189 132 -207 L142 -234 C208 -213 251 -175 251 -135 C251 -113 243 -95 216 -69 C199 -52 196 -45 209 -28 L226 -3 C287 11 337 54 337 126 C337 194 286 231 211 263 C166 282 126 307 126 350 C126 388 152 416 191 416 C239 416 275 377 294 317 L320 324 Z " />
<glyph glyph-name="&amp;#xf6c2;" unicode="&#xf6c2;" horiz-adv-x="366" d="M320 324 C318 349 306 407 297 430 C277 439 250 448 209 448 C116 448 57 388 57 319 C57 245 122 209 181 184 C233 159 261 134 261 90 C261 45 226 21 190 21 C130 21 84 81 66 147 L39 143 C40 106 49 41 55 25 C72 8 121 -12 170 -12 C176 -12 181 -12 186 -11 L155 -51 C136 -74 142 -89 167 -112 C179 -123 190 -134 190 -149 C190 -169 172 -189 132 -207 L142 -234 C208 -213 251 -175 251 -135 C251 -113 243 -95 216 -69 C199 -52 196 -45 209 -28 L226 -3 C287 11 337 54 337 126 C337 194 286 231 211 263 C166 282 126 307 126 350 C126 388 152 416 191 416 C239 416 275 377 294 317 L320 324 Z " />
<glyph glyph-name="Scaron" unicode="&#x160;" horiz-adv-x="474" d="M409 504 C401 567 396 606 392 642 C354 654 312 665 266 665 C137 665 60 583 60 487 C60 374 161 325 225 290 C300 250 355 215 355 141 C355 68 311 21 235 21 C131 21 86 122 71 183 L41 176 C48 128 61 42 68 21 C78 16 93 9 118 0 C142 -7 175 -15 216 -15 C349 -15 438 69 438 174 C438 287 344 333 265 374 C186 414 138 449 138 522 C138 576 172 631 249 631 C336 631 363 562 380 499 L409 504 Z M369 830 C328 813 287 791 248 768 C208 793 167 813 127 830 L111 805 C154 772 197 739 237 697 L259 697 C298 739 341 772 384 805 L369 830 Z " />
<glyph glyph-name="scaron" unicode="&#x161;" horiz-adv-x="367" d="M319 324 C317 349 306 408 297 430 C277 439 250 448 209 448 C117 448 57 388 57 318 C57 242 122 209 182 181 C232 158 261 135 261 91 C261 48 227 21 190 21 C130 21 85 79 68 144 L41 140 C41 104 51 36 58 22 C75 7 121 -12 172 -12 C252 -12 337 35 337 126 C337 195 286 230 210 261 C166 280 126 303 126 347 C126 387 152 416 191 416 C240 416 274 377 294 317 L319 324 Z M277 665 C244 633 216 601 189 568 C163 601 135 633 102 665 L77 648 C115 594 147 541 176 485 L201 485 C231 541 263 594 302 648 L277 665 Z " />
<glyph glyph-name="Tcommaaccent" unicode="&#x162;" horiz-adv-x="617" d="M592 498 C586 556 582 630 581 675 L560 675 C545 656 537 650 510 650 L115 650 C87 650 74 652 60 675 L40 675 C38 621 33 556 28 495 L57 495 C69 539 77 568 89 585 C102 608 122 616 205 616 L267 616 L267 123 C267 44 259 34 168 28 L168 0 L454 0 L454 28 C360 34 352 45 352 123 L352 616 L422 616 C498 616 514 608 531 585 C542 568 552 543 562 495 L592 498 Z M301 -36 C281 -36 260 -49 260 -73 C260 -87 267 -94 275 -97 C300 -103 320 -116 320 -137 C320 -161 297 -178 260 -193 L269 -221 C326 -207 375 -175 375 -115 C375 -68 339 -36 302 -36 L301 -36 Z " />
<glyph glyph-name="tcommaaccent" unicode="&#x163;" horiz-adv-x="305" d="M298 36 L289 61 C276 54 253 45 228 45 C202 45 169 60 169 140 L169 396 L276 396 C289 404 292 425 282 436 L169 436 L169 573 L155 575 L90 508 L90 436 L45 436 L17 407 L21 396 L90 396 L90 106 C90 27 125 -12 188 -12 C198 -12 213 -8 230 1 L298 36 Z M167 -46 C147 -46 126 -59 126 -83 C126 -97 133 -104 141 -107 C166 -113 186 -126 186 -147 C186 -171 163 -188 126 -203 L135 -231 C192 -217 241 -185 241 -125 C241 -78 205 -46 168 -46 L167 -46 Z " />
<glyph glyph-name="Tcaron" unicode="&#x164;" horiz-adv-x="617" d="M592 498 C586 556 582 630 581 675 L560 675 C545 656 537 650 510 650 L115 650 C87 650 74 652 60 675 L40 675 C38 621 33 556 28 495 L57 495 C69 539 77 568 89 585 C102 608 122 616 205 616 L267 616 L267 123 C267 44 259 34 168 28 L168 0 L454 0 L454 28 C360 34 352 45 352 123 L352 616 L422 616 C498 616 514 608 531 585 C542 568 552 543 562 495 L592 498 Z M431 821 C390 804 349 782 310 759 C270 784 229 804 189 821 L173 796 C216 763 259 730 299 688 L321 688 C360 730 403 763 446 796 L431 821 Z " />
<glyph glyph-name="tcaron" unicode="&#x165;" horiz-adv-x="305" d="M298 36 L289 61 C276 54 253 45 228 45 C202 45 169 60 169 140 L169 396 L276 396 C289 404 292 425 282 436 L169 436 L169 573 L155 575 L90 508 L90 436 L45 436 L17 407 L21 396 L90 396 L90 106 C90 27 125 -12 188 -12 C198 -12 213 -8 230 1 L298 36 Z M272 695 C255 695 237 682 237 658 C237 644 244 635 250 633 C269 627 282 616 282 594 C282 570 268 553 237 537 L247 510 C294 524 333 556 333 615 C333 662 305 695 273 695 L272 695 Z " />
<glyph glyph-name="Tbar" unicode="&#x166;" horiz-adv-x="613" d="M588 499 C582 557 578 629 578 675 L556 675 C541 656 536 650 509 650 L112 650 C85 650 75 652 61 675 L40 675 C38 620 33 556 28 496 L58 496 C70 540 78 566 89 584 C102 607 120 615 215 615 L265 615 L265 350 L119 350 L119 311 L265 311 L265 125 C265 44 257 33 166 27 L166 0 L452 0 L452 27 C358 33 350 44 350 125 L350 311 L499 311 L499 350 L350 350 L350 615 L414 615 C490 615 512 608 529 584 C540 568 548 544 558 496 L588 499 Z " />
<glyph glyph-name="tbar" unicode="&#x167;" horiz-adv-x="303" d="M299 37 L289 62 C276 55 253 45 228 45 C202 45 169 60 169 141 L169 225 L270 225 L270 261 L169 261 L169 396 L276 396 C289 404 292 425 282 436 L169 436 L169 573 L155 575 L90 508 L90 436 L45 436 L17 407 L21 396 L90 396 L90 261 L23 261 L23 225 L90 225 L90 107 C90 27 125 -12 188 -12 C198 -12 211 -9 228 0 L299 37 Z " />
<glyph glyph-name="Utilde" unicode="&#x168;" horiz-adv-x="736" d="M716 650 L478 650 L478 622 C549 617 570 605 575 566 C579 535 582 493 582 401 L582 326 C582 161 537 40 393 40 C269 40 205 132 205 294 L205 521 C205 611 213 617 291 622 L291 650 L33 650 L33 622 C111 615 120 611 120 521 L120 272 C120 154 148 79 208 33 C252 0 309 -14 368 -14 C434 -14 501 7 548 55 C605 115 623 201 623 319 L623 400 C623 493 626 536 629 563 C633 605 656 618 716 622 L716 650 Z M338 788 C314 788 283 769 258 706 L282 689 C297 717 311 733 330 733 C347 733 358 727 374 719 C401 706 422 697 444 697 C471 697 504 715 526 782 L501 796 C488 767 474 753 455 753 C437 753 422 759 400 769 C371 783 357 788 339 788 L338 788 Z " />
<glyph glyph-name="utilde" unicode="&#x169;" horiz-adv-x="531" d="M518 50 L491 51 C452 54 444 60 444 110 L444 443 C429 440 405 436 377 433 C348 431 314 428 287 427 L287 403 L323 397 C356 392 365 386 365 333 L365 99 C331 66 293 51 257 51 C212 51 169 75 169 164 L169 299 C169 365 169 412 172 443 C156 440 128 436 101 432 C75 430 50 428 29 427 L29 403 L57 397 C82 392 90 386 90 333 L90 137 C90 29 147 -12 214 -12 C241 -12 262 -4 291 13 C320 30 342 48 365 66 L365 -6 L371 -12 C390 -6 415 1 441 8 C468 15 496 21 518 24 L518 50 Z M216 612 C190 612 158 590 136 522 L162 505 C175 538 189 553 206 553 C221 553 234 548 251 538 C276 524 296 514 317 514 C342 514 373 531 396 604 L371 618 C358 589 345 573 328 573 C312 573 296 581 275 592 C246 607 233 612 217 612 L216 612 Z " />
<glyph glyph-name="Umacron" unicode="&#x16a;" horiz-adv-x="736" d="M716 650 L478 650 L478 622 C549 617 570 605 575 566 C579 535 582 493 582 401 L582 326 C582 161 537 40 393 40 C269 40 205 132 205 294 L205 521 C205 611 213 617 291 622 L291 650 L33 650 L33 622 C111 615 120 611 120 521 L120 272 C120 154 148 79 208 33 C252 0 309 -14 368 -14 C434 -14 501 7 548 55 C605 115 623 201 623 319 L623 400 C623 493 626 536 629 563 C633 605 656 618 716 622 L716 650 Z M494 717 L494 769 L271 769 L271 717 L494 717 Z " />
<glyph glyph-name="umacron" unicode="&#x16b;" horiz-adv-x="531" d="M518 50 L491 51 C452 54 444 60 444 110 L444 443 C429 440 405 436 377 433 C348 431 314 428 287 427 L287 403 L323 397 C356 392 365 386 365 333 L365 99 C331 66 293 51 257 51 C212 51 169 75 169 164 L169 299 C169 365 169 412 172 443 C156 440 128 436 101 432 C75 430 50 428 29 427 L29 403 L57 397 C82 392 90 386 90 333 L90 137 C90 29 147 -12 214 -12 C241 -12 262 -4 291 13 C320 30 342 48 365 66 L365 -6 L371 -12 C390 -6 415 1 441 8 C468 15 496 21 518 24 L518 50 Z M376 532 L376 586 L156 586 L156 532 L376 532 Z " />
<glyph glyph-name="Ubreve" unicode="&#x16c;" horiz-adv-x="736" d="M716 650 L478 650 L478 622 C549 617 570 605 575 566 C579 535 582 493 582 401 L582 326 C582 161 537 40 393 40 C269 40 205 132 205 294 L205 521 C205 611 213 617 291 622 L291 650 L33 650 L33 622 C111 615 120 611 120 521 L120 272 C120 154 148 79 208 33 C252 0 309 -14 368 -14 C434 -14 501 7 548 55 C605 115 623 201 623 319 L623 400 C623 493 626 536 629 563 C633 605 656 618 716 622 L716 650 Z M474 804 C465 769 440 743 387 743 C334 743 309 769 300 804 L270 804 C271 725 318 686 387 686 C455 686 502 725 504 804 L474 804 Z " />
<glyph glyph-name="ubreve" unicode="&#x16d;" horiz-adv-x="531" d="M518 50 L491 51 C452 54 444 60 444 110 L444 443 C429 440 405 436 377 433 C348 431 314 428 287 427 L287 403 L323 397 C356 392 365 386 365 333 L365 99 C331 66 293 51 257 51 C212 51 169 75 169 164 L169 299 C169 365 169 412 172 443 C156 440 128 436 101 432 C75 430 50 428 29 427 L29 403 L57 397 C82 392 90 386 90 333 L90 137 C90 29 147 -12 214 -12 C241 -12 262 -4 291 13 C320 30 342 48 365 66 L365 -6 L371 -12 C390 -6 415 1 441 8 C468 15 496 21 518 24 L518 50 Z M342 636 C335 584 305 557 260 557 C217 557 187 584 180 636 L150 636 C150 532 202 499 260 499 L261 499 C320 499 372 532 372 636 L342 636 Z " />
<glyph glyph-name="Uring" unicode="&#x16e;" horiz-adv-x="736" d="M716 650 L478 650 L478 622 C549 617 570 605 575 566 C579 535 582 493 582 401 L582 326 C582 161 537 40 393 40 C269 40 205 132 205 294 L205 521 C205 611 213 617 291 622 L291 650 L33 650 L33 622 C111 615 120 611 120 521 L120 272 C120 154 148 79 208 33 C252 0 309 -14 368 -14 C434 -14 501 7 548 55 C605 115 623 201 623 319 L623 400 C623 493 626 536 629 563 C633 605 656 618 716 622 L716 650 Z M387 843 C343 843 299 812 299 760 C299 707 343 674 387 674 C432 674 476 707 476 760 C476 812 432 843 388 843 L387 843 Z M387 812 C414 812 431 790 431 760 C431 729 414 705 387 705 C361 705 343 729 343 760 C343 790 361 812 386 812 L387 812 Z " />
<glyph glyph-name="uring" unicode="&#x16f;" horiz-adv-x="531" d="M518 50 L491 51 C452 54 444 60 444 110 L444 443 C429 440 405 436 377 433 C348 431 314 428 287 427 L287 403 L323 397 C356 392 365 386 365 333 L365 99 C331 66 293 51 257 51 C212 51 169 75 169 164 L169 299 C169 365 169 412 172 443 C156 440 128 436 101 432 C75 430 50 428 29 427 L29 403 L57 397 C82 392 90 386 90 333 L90 137 C90 29 147 -12 214 -12 C241 -12 262 -4 291 13 C320 30 342 48 365 66 L365 -6 L371 -12 C390 -6 415 1 441 8 C468 15 496 21 518 24 L518 50 Z M266 657 C221 657 177 626 177 573 C177 520 221 488 266 488 C310 488 354 520 354 573 C354 626 310 657 267 657 L266 657 Z M267 626 C294 626 311 604 311 573 C311 542 294 518 267 518 C240 518 222 542 222 573 C222 604 240 626 266 626 L267 626 Z " />
<glyph glyph-name="Uhungarumlaut" unicode="&#x170;" horiz-adv-x="736" d="M716 650 L478 650 L478 622 C549 617 570 605 575 566 C579 535 582 493 582 401 L582 326 C582 161 537 40 393 40 C269 40 205 132 205 294 L205 521 C205 611 213 617 291 622 L291 650 L33 650 L33 622 C111 615 120 611 120 521 L120 272 C120 154 148 79 208 33 C252 0 309 -14 368 -14 C434 -14 501 7 548 55 C605 115 623 201 623 319 L623 400 C623 493 626 536 629 563 C633 605 656 618 716 622 L716 650 Z M550 796 L549 808 C536 815 497 823 477 821 C463 786 445 741 427 698 L452 684 L550 796 Z M408 796 L407 807 C396 814 355 823 336 821 C322 787 303 742 285 698 L310 684 L408 796 Z " />
<glyph glyph-name="uhungarumlaut" unicode="&#x171;" horiz-adv-x="531" d="M518 50 L491 51 C452 54 444 60 444 110 L444 443 C429 440 405 436 377 433 C348 431 314 428 287 427 L287 403 L323 397 C356 392 365 386 365 333 L365 99 C331 66 293 51 257 51 C212 51 169 75 169 164 L169 299 C169 365 169 412 172 443 C156 440 128 436 101 432 C75 430 50 428 29 427 L29 403 L57 397 C82 392 90 386 90 333 L90 137 C90 29 147 -12 214 -12 C241 -12 262 -4 291 13 C320 30 342 48 365 66 L365 -6 L371 -12 C390 -6 415 1 441 8 C468 15 496 21 518 24 L518 50 Z M292 657 L289 666 C276 668 222 658 212 654 C209 638 181 542 167 493 L195 484 L292 657 Z M430 657 L427 666 C414 668 360 658 350 654 C347 639 319 543 305 493 L333 484 L430 657 Z " />
<glyph glyph-name="Uogonek" unicode="&#x172;" horiz-adv-x="733" d="M713 650 L475 650 L475 623 C544 618 565 605 571 567 C575 536 578 492 578 400 L578 327 C578 156 532 42 391 42 C266 42 205 134 205 295 L205 519 C205 610 213 618 292 623 L292 650 L33 650 L33 623 C111 616 120 611 120 519 L120 273 C120 155 148 81 208 35 C250 2 305 -18 395 -11 C359 -45 307 -103 307 -162 C307 -199 331 -238 390 -238 C399 -238 416 -234 426 -228 L483 -194 L476 -169 C462 -175 442 -181 428 -181 C401 -181 375 -167 375 -129 C375 -95 399 -41 436 -4 C463 2 507 16 545 56 C602 117 620 202 620 320 L620 399 C620 492 623 536 627 564 C631 605 653 619 713 623 L713 650 Z " />
<glyph glyph-name="uogonek" unicode="&#x173;" horiz-adv-x="531" d="M518 49 L491 50 C452 53 444 59 444 109 L444 443 C429 440 405 436 377 433 C348 431 315 428 289 427 L289 403 L323 397 C356 392 365 385 365 332 L365 99 C331 66 293 51 257 51 C212 51 169 75 169 164 L169 300 C169 366 169 412 172 443 C156 440 128 436 101 432 C75 430 49 428 28 427 L28 403 L56 397 C81 392 90 385 90 332 L90 137 C90 29 147 -12 214 -12 C241 -12 263 -4 292 13 C321 30 342 48 365 65 C365 45 365 10 365 -4 C367 -6 369 -9 370 -11 C382 -8 403 -1 420 3 C373 -38 309 -101 309 -161 C309 -202 336 -236 389 -236 C398 -236 415 -231 425 -225 L481 -192 L473 -168 C459 -175 443 -179 427 -179 C399 -179 377 -163 377 -133 C377 -83 427 -20 478 16 C491 18 499 20 518 23 L518 49 Z " />
<glyph glyph-name="Wcircumflex" unicode="&#x174;" horiz-adv-x="971" d="M956 650 L736 650 L736 622 C814 613 818 602 804 542 C789 471 733 275 691 141 L689 141 C628 314 570 476 514 641 L485 641 C434 478 377 312 323 142 L321 142 C277 284 238 419 199 554 C184 605 186 613 259 622 L259 650 L16 650 L16 622 C77 615 92 606 117 524 C172 346 228 170 281 -11 L312 -11 C363 151 419 311 475 488 L477 488 C528 343 597 150 652 -11 L683 -11 C765 269 826 458 848 522 C878 605 887 613 956 622 L956 650 Z M636 704 C593 737 549 770 511 811 L489 811 C451 770 406 737 363 704 L379 679 C419 696 460 719 499 741 C539 718 580 696 620 679 L636 704 Z " />
<glyph glyph-name="wcircumflex" unicode="&#x175;" horiz-adv-x="685" d="M696 436 L516 436 L516 410 C580 401 587 395 574 344 C555 270 527 183 505 114 L503 114 C461 221 420 327 383 431 L357 431 C315 315 278 213 241 117 L239 117 C214 194 189 273 165 349 C151 395 156 401 216 410 L216 436 L9 436 L9 410 C57 404 65 397 83 345 C125 225 162 108 199 -11 L227 -11 C267 99 308 199 346 299 C387 194 428 97 468 -11 L497 -11 C542 124 587 257 617 336 C637 390 646 402 696 410 L696 436 Z M477 501 C439 555 407 609 378 664 L353 664 C323 609 291 555 252 501 L276 484 C309 514 338 548 365 581 C391 548 420 514 452 484 L477 501 Z " />
<glyph glyph-name="Ycircumflex" unicode="&#x176;" horiz-adv-x="634" d="M620 650 L399 650 L399 622 C477 614 480 606 457 556 C429 495 375 397 339 331 C295 406 246 488 203 568 C185 601 182 613 254 622 L254 650 L15 650 L15 622 C75 617 86 606 126 537 C180 445 217 379 252 318 C269 287 273 278 273 258 L273 125 C273 41 265 34 175 28 L175 0 L458 0 L458 28 C366 34 358 41 358 125 L358 261 C358 287 361 298 375 324 C422 412 456 470 501 543 C539 604 551 614 620 622 L620 650 Z M460 709 C417 742 373 775 335 816 L313 816 C275 775 230 742 187 709 L203 684 C243 701 284 724 323 746 C363 723 404 701 444 684 L460 709 Z " />
<glyph glyph-name="ycircumflex" unicode="&#x177;" horiz-adv-x="459" d="M478 436 L297 436 L297 410 C355 402 361 391 349 353 C329 291 285 173 257 105 L167 355 C153 393 158 403 205 410 L204 436 L2 436 L2 410 C57 403 66 389 88 335 C117 264 162 143 202 29 C208 13 209 0 204 -15 C199 -29 191 -49 173 -84 C149 -129 130 -153 98 -173 C81 -184 73 -193 73 -209 C73 -233 101 -257 129 -257 C143 -257 156 -252 161 -232 C175 -179 197 -122 264 37 C333 202 364 285 390 338 C417 394 425 402 478 410 L478 436 Z M357 504 C319 558 287 612 258 667 L233 667 C203 612 171 558 132 504 L156 487 C189 517 218 551 245 584 C271 551 300 517 332 487 L357 504 Z " />
<glyph glyph-name="Ydieresis" unicode="&#x178;" horiz-adv-x="634" d="M620 650 L399 650 L399 622 C477 614 480 606 457 556 C429 495 375 397 339 331 C295 406 246 488 203 568 C185 601 182 613 254 622 L254 650 L15 650 L15 622 C75 617 86 606 126 537 C180 445 217 379 252 318 C269 287 273 278 273 258 L273 125 C273 41 265 34 175 28 L175 0 L458 0 L458 28 C366 34 358 41 358 125 L358 261 C358 287 361 298 375 324 C422 412 456 470 501 543 C539 604 551 614 620 622 L620 650 Z M422 795 C397 795 375 773 375 745 C375 719 397 697 422 697 C449 697 470 719 470 745 C470 773 449 795 423 795 L422 795 Z M231 795 C206 795 184 773 184 745 C184 719 206 697 231 697 C258 697 279 719 279 745 C279 773 258 795 232 795 L231 795 Z " />
<glyph glyph-name="Zacute" unicode="&#x179;" horiz-adv-x="603" d="M561 176 C543 127 527 95 506 73 C478 43 441 36 316 36 C247 36 185 38 153 42 C290 245 427 439 566 636 L559 650 L160 650 C130 650 119 652 107 675 L83 675 C81 630 76 555 71 492 L100 491 C112 535 123 560 135 578 C152 605 168 614 276 614 L449 614 C310 411 169 213 29 15 L37 0 L554 0 C565 41 583 134 590 170 L561 176 Z M474 756 C471 770 443 809 431 811 C385 781 328 743 274 709 L287 684 L472 748 L474 756 Z " />
<glyph glyph-name="zacute" unicode="&#x17a;" horiz-adv-x="420" d="M387 138 L374 114 C336 53 316 33 240 33 L141 33 C223 167 303 294 385 422 L379 436 L149 436 C112 438 100 444 94 459 L73 459 C65 414 50 351 39 313 L64 304 L78 331 C106 387 119 402 191 402 L280 402 C198 269 117 141 31 15 L38 0 L367 0 C382 40 399 86 413 125 L387 138 Z M337 657 L334 666 C322 668 264 659 255 655 C248 638 207 540 188 498 L214 485 L337 657 Z " />
<glyph glyph-name="Zdotaccent" unicode="&#x17b;" horiz-adv-x="603" d="M561 176 C543 127 527 95 506 73 C478 43 441 36 316 36 C247 36 185 38 153 42 C290 245 427 439 566 636 L559 650 L160 650 C130 650 119 652 107 675 L83 675 C81 630 76 555 71 492 L100 491 C112 535 123 560 135 578 C152 605 168 614 276 614 L449 614 C310 411 169 213 29 15 L37 0 L554 0 C565 41 583 134 590 170 L561 176 Z M319 807 C290 807 268 784 268 754 C268 726 290 703 319 703 C348 703 370 726 370 754 C370 784 348 807 320 807 L319 807 Z " />
<glyph glyph-name="zdotaccent" unicode="&#x17c;" horiz-adv-x="420" d="M387 138 L374 114 C336 53 316 33 240 33 L141 33 C223 167 303 294 385 422 L379 436 L149 436 C112 438 100 444 94 459 L73 459 C65 414 50 351 39 313 L64 304 L78 331 C106 387 119 402 191 402 L280 402 C198 269 117 141 31 15 L38 0 L367 0 C382 40 399 86 413 125 L387 138 Z M221 623 C195 623 171 600 171 571 C171 544 195 520 221 520 C250 520 272 544 272 571 C272 600 250 623 222 623 L221 623 Z " />
<glyph glyph-name="Zcaron" unicode="&#x17d;" horiz-adv-x="603" d="M561 176 C543 127 527 95 506 73 C478 43 441 36 316 36 C247 36 185 38 153 42 C290 245 427 439 566 636 L559 650 L160 650 C130 650 119 652 107 675 L83 675 C81 630 76 555 71 492 L100 491 C112 535 123 560 135 578 C152 605 168 614 276 614 L449 614 C310 411 169 213 29 15 L37 0 L554 0 C565 41 583 134 590 170 L561 176 Z M440 821 C399 804 358 782 319 759 C279 784 238 804 198 821 L182 796 C225 763 268 730 308 688 L330 688 C369 730 412 763 455 796 L440 821 Z " />
<glyph glyph-name="zcaron" unicode="&#x17e;" horiz-adv-x="420" d="M387 138 L374 114 C336 53 316 33 240 33 L141 33 C223 167 303 294 385 422 L379 436 L149 436 C112 438 100 444 94 459 L73 459 C65 414 50 351 39 313 L64 304 L78 331 C106 387 119 402 191 402 L280 402 C198 269 117 141 31 15 L38 0 L367 0 C382 40 399 86 413 125 L387 138 Z M305 664 C272 632 244 600 217 567 C191 600 163 632 130 664 L105 647 C143 593 175 540 204 484 L229 484 C259 540 291 593 330 647 L305 664 Z " />
<glyph glyph-name="longs" unicode="&#x17f;" horiz-adv-x="267" d="M54 436 L27 407 L31 396 L101 396 L101 103 C101 38 94 32 35 26 L35 0 L250 0 L250 26 C186 33 180 37 180 112 L180 427 C180 548 188 603 201 626 C213 648 230 662 256 662 C290 662 316 643 336 622 C345 614 352 612 362 618 C373 626 382 636 385 645 C389 657 388 667 378 679 C364 696 334 711 299 712 C261 707 225 690 188 659 C136 613 119 564 112 540 C105 518 101 491 101 458 L101 436 L54 436 Z " />
<glyph glyph-name="florin" unicode="&#x192;" horiz-adv-x="480" d="M187 370 L93 370 L93 333 L181 333 L156 141 C141 26 131 -25 124 -48 C116 -73 104 -83 82 -83 C52 -83 23 -52 13 -52 C2 -52 -22 -83 -22 -100 C-22 -117 6 -138 32 -138 C55 -138 83 -128 120 -100 C171 -62 216 -6 236 128 L266 333 L384 333 L385 370 L272 370 C290 514 301 548 312 569 C321 589 334 600 351 600 C379 600 406 577 423 567 C439 559 461 592 461 608 C462 631 427 652 403 652 C380 652 344 643 291 597 C240 553 211 499 196 415 L187 370 Z " />
<glyph glyph-name="AEacute" unicode="&#x1fc;" horiz-adv-x="869" d="M819 165 C802 118 786 88 770 69 C747 42 713 35 642 35 C595 35 560 35 540 47 C522 58 516 78 516 130 L516 296 L605 296 C695 296 701 288 715 217 L745 217 L745 412 L715 412 C702 344 696 335 605 335 L516 335 L516 584 C516 613 518 615 548 615 L631 615 C700 615 720 608 736 587 C750 569 758 544 768 504 L798 508 C793 558 789 625 788 650 L275 650 L275 623 L316 618 C366 611 369 603 347 561 C278 430 190 258 107 112 C69 44 52 36 -11 27 L-11 0 L218 0 L218 27 C140 37 137 50 160 102 C186 160 212 213 256 296 L433 296 L433 134 C433 44 425 34 339 28 L339 0 L812 0 C821 31 842 127 848 158 L819 165 Z M433 335 L274 335 C330 449 366 518 405 591 C419 608 426 610 433 610 L433 335 Z M676 756 C673 770 645 809 633 811 C587 781 530 743 476 709 L489 684 L674 748 L676 756 Z " />
<glyph glyph-name="aeacute" unicode="&#x1fd;" horiz-adv-x="671" d="M284 274 C253 252 174 226 119 207 C65 188 40 159 40 108 C40 49 88 -12 161 -12 C190 -12 243 20 282 49 L317 76 C349 23 405 -12 478 -12 C509 -12 583 6 641 84 L624 105 C586 69 551 55 513 55 C435 55 355 113 357 246 C482 250 608 260 623 263 C642 267 646 275 646 298 C645 373 578 448 492 448 C439 448 384 417 344 372 C335 395 322 413 304 426 C286 440 259 448 230 448 C174 435 109 398 79 378 C59 364 48 351 48 335 C48 314 78 294 94 294 C109 294 117 302 122 318 C130 347 138 367 149 381 C159 394 174 403 196 403 C244 403 284 361 284 298 L284 274 Z M469 410 C527 410 560 362 560 311 C560 293 553 289 539 289 C480 287 420 287 363 286 C373 369 423 410 468 410 L469 410 Z M198 51 C162 51 125 77 125 127 C125 162 143 180 185 198 C219 212 262 229 283 240 C283 190 288 138 303 107 C270 64 229 51 199 51 L198 51 Z M459 657 L456 666 C444 668 386 659 377 655 C370 638 329 540 310 498 L336 485 L459 657 Z " />
<glyph glyph-name="Oslashacute" unicode="&#x1fe;" horiz-adv-x="749" d="M633 674 L603 694 L553 619 C506 650 449 665 390 665 C181 665 50 499 50 319 C50 208 100 115 171 56 L118 -22 L145 -45 L201 35 C251 3 311 -15 374 -15 C560 -15 710 120 710 335 C710 447 656 541 584 600 L633 674 Z M217 123 C177 176 150 256 150 344 C150 534 254 629 367 629 C425 629 477 609 517 566 L217 123 Z M541 537 C581 482 610 406 610 305 C610 150 542 21 391 21 C333 21 277 45 240 92 L541 537 Z M505 761 C502 775 474 814 462 816 C416 786 359 748 305 714 L318 689 L503 753 L505 761 Z " />
<glyph glyph-name="oslashacute" unicode="&#x1ff;" horiz-adv-x="513" d="M432 453 L406 472 L369 418 C337 437 302 448 260 448 C167 448 37 372 37 209 C37 146 66 81 116 38 L79 -14 L104 -36 L143 19 C177 -1 215 -12 260 -12 C361 -12 476 69 476 227 C476 296 447 359 397 401 L432 453 Z M157 100 C137 134 126 180 126 233 C126 351 183 415 249 415 C285 415 319 397 338 371 L157 100 Z M358 340 C378 304 388 260 388 213 C388 75 330 21 269 21 C227 21 196 42 178 70 L358 340 Z M368 657 L365 666 C353 668 295 659 286 655 C279 638 238 540 219 498 L245 485 L368 657 Z " />
<glyph glyph-name="Scommaaccent" unicode="&#x218;" horiz-adv-x="474" d="M409 504 C401 567 396 606 392 642 C354 654 312 665 266 665 C137 665 60 583 60 487 C60 374 161 325 225 290 C300 250 355 215 355 141 C355 68 311 21 235 21 C131 21 86 122 71 183 L41 176 C48 128 61 42 68 21 C78 16 93 9 118 0 C142 -7 175 -15 216 -15 C349 -15 438 69 438 174 C438 287 344 333 265 374 C186 414 138 449 138 522 C138 576 172 631 249 631 C336 631 363 562 380 499 L409 504 Z M235 -52 C215 -52 194 -65 194 -89 C194 -103 201 -110 209 -113 C234 -119 254 -132 254 -153 C254 -177 231 -194 194 -209 L203 -237 C260 -223 309 -191 309 -131 C309 -84 273 -52 236 -52 L235 -52 Z " />
<glyph glyph-name="scommaaccent" unicode="&#x219;" horiz-adv-x="367" d="M319 324 C317 349 306 408 297 430 C277 439 250 448 209 448 C117 448 57 388 57 318 C57 242 122 209 182 181 C232 158 261 135 261 91 C261 48 227 21 190 21 C130 21 85 79 68 144 L41 140 C41 104 51 36 58 22 C75 7 121 -12 172 -12 C252 -12 337 35 337 126 C337 195 286 230 210 261 C166 280 126 303 126 347 C126 387 152 416 191 416 C240 416 274 377 294 317 L319 324 Z M184 -43 C164 -43 143 -56 143 -80 C143 -94 150 -101 158 -104 C183 -110 203 -123 203 -144 C203 -168 180 -185 143 -200 L152 -228 C209 -214 258 -182 258 -122 C258 -75 222 -43 185 -43 L184 -43 Z " />
<glyph glyph-name="uni021A" unicode="&#x21a;" horiz-adv-x="617" d="M592 498 C586 556 582 630 581 675 L560 675 C545 656 537 650 510 650 L115 650 C87 650 74 652 60 675 L40 675 C38 621 33 556 28 495 L57 495 C69 539 77 568 89 585 C102 608 122 616 205 616 L267 616 L267 123 C267 44 259 34 168 28 L168 0 L454 0 L454 28 C360 34 352 45 352 123 L352 616 L422 616 C498 616 514 608 531 585 C542 568 552 543 562 495 L592 498 Z M301 -36 C281 -36 260 -49 260 -73 C260 -87 267 -94 275 -97 C300 -103 320 -116 320 -137 C320 -161 297 -178 260 -193 L269 -221 C326 -207 375 -175 375 -115 C375 -68 339 -36 302 -36 L301 -36 Z " />
<glyph glyph-name="uni021B" unicode="&#x21b;" horiz-adv-x="305" d="M298 36 L289 61 C276 54 253 45 228 45 C202 45 169 60 169 140 L169 396 L276 396 C289 404 292 425 282 436 L169 436 L169 573 L155 575 L90 508 L90 436 L45 436 L17 407 L21 396 L90 396 L90 106 C90 27 125 -12 188 -12 C198 -12 213 -8 230 1 L298 36 Z M167 -46 C147 -46 126 -59 126 -83 C126 -97 133 -104 141 -107 C166 -113 186 -126 186 -147 C186 -171 163 -188 126 -203 L135 -231 C192 -217 241 -185 241 -125 C241 -78 205 -46 168 -46 L167 -46 Z " />
<glyph glyph-name="circumflex" unicode="&#x2c6;" horiz-adv-x="400" d="M313 501 C275 555 243 609 214 664 L189 664 C159 609 127 555 88 501 L112 484 C145 514 174 548 201 581 C227 548 256 514 288 484 L313 501 Z " />
<glyph glyph-name="caron" unicode="&#x2c7;" horiz-adv-x="400" d="M287 664 C254 632 226 600 199 567 C173 600 145 632 112 664 L87 647 C125 593 157 540 186 484 L211 484 C241 540 273 593 312 647 L287 664 Z " />
<glyph glyph-name="uni02C9" unicode="&#x2c9;" horiz-adv-x="400" d="M310 532 L310 586 L90 586 L90 532 L310 532 Z " />
<glyph glyph-name="breve" unicode="&#x2d8;" horiz-adv-x="400" d="M281 636 C274 584 244 557 199 557 C156 557 126 584 119 636 L89 636 C89 532 141 499 199 499 L200 499 C259 499 311 532 311 636 L281 636 Z " />
<glyph glyph-name="dotaccent" unicode="&#x2d9;" horiz-adv-x="400" d="M200 623 C174 623 150 600 150 571 C150 544 174 520 200 520 C229 520 251 544 251 571 C251 600 229 623 201 623 L200 623 Z " />
<glyph glyph-name="ring" unicode="&#x2da;" horiz-adv-x="400" d="M200 657 C155 657 111 626 111 573 C111 520 155 488 200 488 C244 488 288 520 288 573 C288 626 244 657 201 657 L200 657 Z M201 626 C228 626 245 604 245 573 C245 542 228 518 201 518 C174 518 156 542 156 573 C156 604 174 626 200 626 L201 626 Z " />
<glyph glyph-name="ogonek" unicode="&#x2db;" horiz-adv-x="400" d="M296 -176 L288 -151 C274 -157 260 -160 246 -160 C217 -160 195 -143 195 -108 C195 -77 206 -38 225 2 L188 2 C162 -43 131 -91 131 -139 C131 -173 156 -213 213 -213 C222 -213 235 -210 245 -204 L296 -176 Z " />
<glyph glyph-name="tilde" unicode="&#x2dc;" horiz-adv-x="400" d="M150 612 C124 612 92 590 70 522 L96 505 C109 538 123 553 140 553 C155 553 168 548 185 538 C210 524 230 514 251 514 C276 514 307 531 330 604 L305 618 C292 589 279 573 262 573 C246 573 230 581 209 592 C180 607 167 612 151 612 L150 612 Z " />
<glyph glyph-name="hungarumlaut" unicode="&#x2dd;" horiz-adv-x="400" d="M232 657 L229 666 C216 668 162 658 152 654 C149 638 121 542 107 493 L135 484 L232 657 Z M370 657 L367 666 C354 668 300 658 290 654 C287 639 259 543 245 493 L273 484 L370 657 Z " />
<glyph glyph-name="uni0374" unicode="&#x374;" horiz-adv-x="230" d="M202 644 C189 653 124 661 111 650 C103 603 77 476 59 410 L85 405 C126 480 166 556 204 630 L202 644 Z " />
<glyph glyph-name="uni0375" unicode="&#x375;" horiz-adv-x="230" d="M167 120 C153 129 88 137 76 126 C67 79 41 -48 23 -114 L49 -119 C92 -42 130 32 169 106 L167 120 Z " />
<glyph glyph-name="uni037E" unicode="&#x37e;" horiz-adv-x="230" d="M118 265 C155 265 182 292 182 332 C182 369 155 398 118 398 C82 398 55 369 55 332 C55 292 82 265 117 265 L118 265 Z M41 -121 C84 -46 122 31 161 106 L159 120 C145 128 81 136 68 126 C59 83 32 -48 15 -114 L41 -121 Z " />
<glyph glyph-name="tonos" unicode="&#x384;" horiz-adv-x="353" d="M260 657 L256 666 C244 669 189 661 181 652 C180 621 169 535 165 488 L193 487 L260 657 Z " />
<glyph glyph-name="dieresistonos" unicode="&#x385;" horiz-adv-x="400" d="M310 514 C334 514 353 532 353 559 C353 584 334 605 310 605 C281 605 263 584 263 559 C263 532 281 514 309 514 L310 514 Z M274 660 L271 668 C262 669 207 662 195 657 C182 607 167 551 152 493 L180 487 L274 660 Z M93 514 C118 514 137 532 137 559 C137 584 118 605 93 605 C67 605 48 584 48 559 C48 532 67 514 92 514 L93 514 Z " />
<glyph glyph-name="Alphatonos" unicode="&#x386;" horiz-adv-x="691" d="M673 0 L673 28 C608 35 594 44 563 130 C499 303 432 494 370 665 L339 656 L132 132 C98 43 84 37 20 28 L20 0 L238 0 L238 28 C162 36 154 45 175 109 C188 150 203 192 219 237 L432 237 C454 176 474 122 487 83 C500 44 491 36 428 28 L428 0 L673 0 Z M418 280 L234 280 C265 362 296 450 328 535 L330 535 L418 280 Z M208 687 L204 696 C192 699 137 691 129 682 C128 651 117 565 113 518 L141 517 L208 687 Z " />
<glyph glyph-name="anoteleia" unicode="&#x387;" horiz-adv-x="230" d="M115 199 C152 199 180 226 180 266 C180 303 152 332 115 332 C78 332 50 303 50 266 C50 226 78 199 114 199 L115 199 Z " />
<glyph glyph-name="Epsilontonos" unicode="&#x388;" horiz-adv-x="568" d="M517 162 C503 122 484 88 467 68 C445 42 417 34 341 34 C291 34 256 34 237 47 C219 59 213 81 213 128 L213 317 L308 317 C395 317 402 311 415 240 L444 240 L444 431 L415 431 C403 364 398 356 307 356 L213 356 L213 584 C213 613 215 616 246 616 L322 616 C394 616 421 609 435 587 C448 566 458 544 467 502 L496 506 C493 558 488 626 488 650 L42 650 L42 623 C120 616 128 612 128 523 L128 125 C128 43 120 35 29 28 L29 0 L511 0 C520 31 540 125 546 158 L517 162 Z M4 687 L0 696 C-12 699 -67 691 -75 682 C-76 651 -87 565 -91 518 L-63 517 L4 687 Z " />
<glyph glyph-name="Etatonos" unicode="&#x389;" horiz-adv-x="766" d="M729 650 L468 650 L468 622 C546 615 554 610 554 527 L554 365 L213 365 L213 527 C213 610 221 616 297 622 L297 650 L38 650 L38 622 C120 616 128 611 128 527 L128 123 C128 39 120 34 40 28 L40 0 L303 0 L303 28 C221 34 213 40 213 123 L213 322 L554 322 L554 123 C554 39 546 34 460 28 L460 0 L728 0 L728 28 C647 34 639 39 639 123 L639 527 C639 610 647 615 729 622 L729 650 Z M-3 687 L-7 696 C-19 699 -74 691 -82 682 C-83 651 -94 565 -98 518 L-70 517 L-3 687 Z " />
<glyph glyph-name="Iotatonos" unicode="&#x38a;" horiz-adv-x="341" d="M303 0 L303 28 C221 34 213 39 213 125 L213 525 C213 610 221 616 303 622 L303 650 L38 650 L38 622 C120 616 128 610 128 525 L128 125 C128 40 120 34 38 28 L38 0 L303 0 Z M-3 687 L-7 696 C-19 699 -74 691 -82 682 C-83 651 -94 565 -98 518 L-70 517 L-3 687 Z " />
<glyph glyph-name="Omicrontonos" unicode="&#x38c;" horiz-adv-x="747" d="M380 665 C170 665 44 498 44 318 C44 125 188 -15 369 -15 C552 -15 703 117 703 333 C703 533 550 665 381 665 L380 665 Z M360 629 C491 629 601 517 601 306 C601 114 502 21 390 21 C249 21 146 158 146 346 C146 534 248 629 359 629 L360 629 Z M70 677 L66 686 C54 689 -1 681 -9 672 C-10 641 -21 555 -25 508 L3 507 L70 677 Z " />
<glyph glyph-name="Upsilontonos" unicode="&#x38e;" horiz-adv-x="655" d="M648 625 C638 644 619 665 597 665 C518 665 445 585 404 489 C377 436 359 379 345 309 L340 309 C335 366 324 448 296 515 C263 599 214 665 123 665 C83 665 33 649 1 632 L6 606 C19 609 32 609 44 609 C124 609 186 567 230 473 C270 390 283 308 283 200 L283 122 C283 42 274 33 184 27 L184 0 L468 0 L468 27 C376 33 368 42 368 122 L368 194 C368 293 402 401 461 492 C512 572 576 611 629 611 C634 611 636 611 642 610 L648 625 Z M-34 687 L-38 696 C-50 699 -105 691 -113 682 C-114 651 -125 565 -129 518 L-101 517 L-34 687 Z " />
<glyph glyph-name="Omegatonos" unicode="&#x38f;" horiz-adv-x="757" d="M719 146 L691 147 C666 77 657 72 612 72 L528 72 C572 125 688 224 688 364 C688 546 558 665 384 665 C212 665 77 541 77 361 C77 221 188 124 239 72 L150 72 C110 72 97 81 73 147 L46 146 L63 0 L307 0 L314 19 C284 71 178 203 178 360 C178 529 256 631 383 631 C509 631 588 523 588 363 C588 197 485 68 453 18 L458 0 L701 0 L719 146 Z M80 677 L76 686 C64 689 9 681 1 672 C0 641 -11 555 -15 508 L13 507 L80 677 Z " />
<glyph glyph-name="iotadieresistonos" unicode="&#x390;" horiz-adv-x="245" d="M230 57 C217 52 203 49 189 49 C168 49 150 61 150 116 L150 449 L71 430 L71 85 C71 8 112 -12 140 -12 C177 -12 212 13 237 31 L230 57 Z M224 522 C248 522 267 540 267 567 C267 592 248 613 224 613 C195 613 177 592 177 567 C177 540 195 522 223 522 L224 522 Z M188 668 L185 676 C176 677 121 670 109 665 C96 615 81 559 66 501 L94 495 L188 668 Z M7 522 C32 522 51 540 51 567 C51 592 32 613 7 613 C-19 613 -38 592 -38 567 C-38 540 -19 522 6 522 L7 522 Z " />
<glyph glyph-name="Alpha" unicode="&#x391;" horiz-adv-x="691" d="M673 0 L673 28 C608 35 594 44 563 130 C499 303 432 494 370 665 L339 656 L132 132 C98 43 84 37 20 28 L20 0 L238 0 L238 28 C162 36 154 45 175 109 C188 150 203 192 219 237 L432 237 C454 176 474 122 487 83 C500 44 491 36 428 28 L428 0 L673 0 Z M418 280 L234 280 C265 362 296 450 328 535 L330 535 L418 280 Z " />
<glyph glyph-name="Beta" unicode="&#x392;" horiz-adv-x="588" d="M372 352 C427 368 507 407 507 502 C507 548 486 592 451 616 C420 638 376 650 301 650 L44 650 L44 622 C124 616 128 610 128 527 L128 123 C128 40 122 34 36 28 L36 0 L257 0 C336 0 402 12 453 40 C512 72 548 124 548 191 C548 291 471 335 372 350 L372 352 Z M213 362 L213 558 C213 591 216 602 226 608 C235 614 258 618 282 618 C377 618 415 558 415 490 C415 406 369 362 260 362 L213 362 Z M213 328 L258 328 C380 328 450 283 450 181 C450 76 377 34 296 34 C231 33 213 53 213 125 L213 328 Z " />
<glyph glyph-name="Gamma" unicode="&#x393;" horiz-adv-x="507" d="M485 501 C480 550 475 615 475 650 L42 650 L42 622 C119 616 127 606 127 525 L127 126 C127 44 119 34 41 28 L41 0 L311 0 L311 28 C220 34 212 43 212 126 L212 584 C212 612 216 615 244 615 L318 615 C382 615 404 608 420 587 C435 569 445 541 455 497 L485 501 Z " />
<glyph glyph-name="uni0394" unicode="&#x394;" horiz-adv-x="641" d="M600 0 L600 24 L339 665 L311 657 L43 24 L43 0 L600 0 Z M497 50 L107 50 L303 539 L497 50 Z " />
<glyph glyph-name="Epsilon" unicode="&#x395;" horiz-adv-x="568" d="M517 162 C503 122 484 88 467 68 C445 42 417 34 341 34 C291 34 256 34 237 47 C219 59 213 81 213 128 L213 317 L308 317 C395 317 402 311 415 240 L444 240 L444 431 L415 431 C403 364 398 356 307 356 L213 356 L213 584 C213 613 215 616 246 616 L322 616 C394 616 421 609 435 587 C448 566 458 544 467 502 L496 506 C493 558 488 626 488 650 L42 650 L42 623 C120 616 128 612 128 523 L128 125 C128 43 120 35 29 28 L29 0 L511 0 C520 31 540 125 546 158 L517 162 Z " />
<glyph glyph-name="Zeta" unicode="&#x396;" horiz-adv-x="603" d="M561 176 C543 127 527 95 506 73 C478 43 441 36 316 36 C247 36 185 38 153 42 C290 245 427 439 566 636 L559 650 L160 650 C130 650 119 652 107 675 L83 675 C81 630 76 555 71 492 L100 491 C112 535 123 560 135 578 C152 605 168 614 276 614 L449 614 C310 411 169 213 29 15 L37 0 L554 0 C565 41 583 134 590 170 L561 176 Z " />
<glyph glyph-name="Eta" unicode="&#x397;" horiz-adv-x="766" d="M729 650 L468 650 L468 622 C546 615 554 610 554 527 L554 365 L213 365 L213 527 C213 610 221 616 297 622 L297 650 L38 650 L38 622 C120 616 128 611 128 527 L128 123 C128 39 120 34 40 28 L40 0 L303 0 L303 28 C221 34 213 40 213 123 L213 322 L554 322 L554 123 C554 39 546 34 460 28 L460 0 L728 0 L728 28 C647 34 639 39 639 123 L639 527 C639 610 647 615 729 622 L729 650 Z " />
<glyph glyph-name="Theta" unicode="&#x398;" horiz-adv-x="739" d="M376 665 C166 665 44 493 44 316 C44 126 183 -15 363 -15 C547 -15 695 118 695 332 C695 533 546 665 377 665 L376 665 Z M356 630 C491 630 593 515 593 303 C593 112 496 22 385 22 C245 22 146 157 146 344 C146 533 244 630 355 630 L356 630 Z M502 224 L502 441 L471 441 C464 375 459 369 411 369 L326 369 C278 367 273 373 266 441 L235 441 L235 224 L266 224 C273 291 278 298 326 298 L411 298 C459 298 464 291 471 224 L502 224 Z " />
<glyph glyph-name="Iota" unicode="&#x399;" horiz-adv-x="341" d="M303 0 L303 28 C221 34 213 39 213 125 L213 525 C213 610 221 616 303 622 L303 650 L38 650 L38 622 C120 616 128 610 128 525 L128 125 C128 40 120 34 38 28 L38 0 L303 0 Z " />
<glyph glyph-name="Kappa" unicode="&#x39a;" horiz-adv-x="673" d="M667 0 L667 28 C619 34 599 43 546 100 C496 154 386 277 311 372 C378 440 449 512 488 547 C551 605 575 615 650 622 L650 650 L410 650 L410 622 L433 619 C478 614 479 604 449 568 C404 513 337 443 282 390 C254 364 234 350 212 345 L212 520 C212 609 222 616 299 622 L299 650 L41 650 L41 622 C120 616 128 611 128 520 L128 129 C128 41 120 34 44 28 L44 0 L304 0 L304 28 C221 34 212 41 212 129 L212 318 C229 321 242 318 266 291 C355 185 436 87 514 0 L667 0 Z " />
<glyph glyph-name="Lambda" unicode="&#x39b;" horiz-adv-x="686" d="M671 0 L671 28 C608 36 593 47 562 130 C495 309 432 486 368 665 L336 656 C270 481 202 311 134 139 C98 47 84 39 20 28 L20 0 L241 0 L241 28 C167 38 156 47 178 115 C217 236 276 383 327 530 L329 530 C375 398 437 223 484 92 C499 47 489 37 424 28 L424 0 L671 0 Z " />
<glyph glyph-name="Mu" unicode="&#x39c;" horiz-adv-x="891" d="M861 0 L861 27 C774 35 771 41 768 147 L758 509 C755 612 762 614 850 622 L850 650 L680 650 L448 149 L221 650 L57 650 L57 622 C148 613 153 609 144 479 L130 271 C123 166 117 123 111 88 C104 46 85 34 26 28 L26 0 L259 0 L259 28 C192 35 169 42 167 90 C166 130 166 173 170 256 L184 541 L186 541 L410 6 L431 6 L675 555 L678 555 L682 147 C682 41 679 35 597 27 L597 0 L861 0 Z " />
<glyph glyph-name="Nu" unicode="&#x39d;" horiz-adv-x="743" d="M719 650 L483 650 L483 622 C553 618 576 605 581 560 C585 532 588 486 588 394 L588 149 L585 149 L167 650 L20 650 L20 622 C67 618 88 610 109 585 C127 561 129 557 129 484 L129 264 C129 173 126 124 123 93 C118 44 92 32 35 28 L35 0 L272 0 L272 28 C204 32 181 44 176 95 C173 124 170 172 170 264 L170 515 L172 515 L598 -9 L629 -9 L629 394 C629 487 631 532 635 563 C639 606 663 619 719 622 L719 650 Z " />
<glyph glyph-name="Xi" unicode="&#x39e;" horiz-adv-x="607" d="M534 494 L526 650 L85 650 L77 494 L107 494 C123 564 127 582 189 582 L423 582 C485 582 488 567 505 494 L534 494 Z M472 234 L472 443 L443 443 C433 381 426 374 374 374 L231 374 C185 373 179 381 169 443 L139 443 L139 234 L168 234 C178 297 184 305 237 305 L374 305 C426 305 433 297 443 234 L472 234 Z M560 171 L532 171 C506 91 498 72 417 72 L195 72 C113 72 106 93 80 171 L51 171 L62 0 L550 0 L560 171 Z " />
<glyph glyph-name="Omicron" unicode="&#x39f;" horiz-adv-x="747" d="M380 665 C170 665 44 498 44 318 C44 125 188 -15 369 -15 C552 -15 703 117 703 333 C703 533 550 665 381 665 L380 665 Z M360 629 C491 629 601 517 601 306 C601 114 502 21 390 21 C249 21 146 158 146 346 C146 534 248 629 359 629 L360 629 Z " />
<glyph glyph-name="Pi" unicode="&#x3a0;" horiz-adv-x="738" d="M703 650 L36 650 L36 622 C118 615 126 607 126 526 L126 124 C126 45 117 35 40 28 L40 0 L297 0 L297 28 C219 34 211 44 211 124 L211 581 C211 609 214 613 245 613 L494 613 C521 613 527 610 527 583 L527 124 C527 46 519 34 434 28 L434 0 L700 0 L700 28 C620 34 612 44 612 124 L612 526 C612 605 620 615 703 622 L703 650 Z " />
<glyph glyph-name="Rho" unicode="&#x3a1;" horiz-adv-x="563" d="M46 650 L46 622 C120 617 128 613 128 525 L128 125 C128 42 120 34 40 28 L40 0 L311 0 L311 28 C221 34 212 39 212 124 L212 281 L286 262 C297 261 316 261 331 263 C429 275 526 338 526 468 C526 533 501 579 462 609 C422 638 364 650 293 650 L46 650 Z M212 559 C212 588 215 600 223 606 C230 613 251 618 279 618 C361 618 430 572 430 464 C430 337 350 302 285 302 C252 302 225 309 212 314 L212 559 Z " />
<glyph glyph-name="Sigma" unicode="&#x3a3;" horiz-adv-x="598" d="M570 168 L541 175 C510 88 481 71 415 71 L135 71 L378 358 L167 614 L348 614 C422 614 447 608 463 588 C478 571 488 546 500 500 L529 504 C524 559 519 633 518 650 L47 650 L47 628 L295 324 L33 22 L33 0 L531 0 L570 168 Z " />
<glyph glyph-name="Tau" unicode="&#x3a4;" horiz-adv-x="617" d="M592 498 C586 556 582 630 581 675 L560 675 C545 656 537 650 510 650 L115 650 C87 650 74 652 60 675 L40 675 C38 621 33 556 28 495 L57 495 C69 539 77 568 89 585 C102 608 122 616 205 616 L267 616 L267 123 C267 44 259 34 168 28 L168 0 L454 0 L454 28 C360 34 352 45 352 123 L352 616 L422 616 C498 616 514 608 531 585 C542 568 552 543 562 495 L592 498 Z " />
<glyph glyph-name="Upsilon" unicode="&#x3a5;" horiz-adv-x="655" d="M648 625 C638 644 619 665 597 665 C518 665 445 585 404 489 C377 436 359 379 345 309 L340 309 C335 366 324 448 296 515 C263 599 214 665 123 665 C83 665 33 649 1 632 L6 606 C19 609 32 609 44 609 C124 609 186 567 230 473 C270 390 283 308 283 200 L283 122 C283 42 274 33 184 27 L184 0 L468 0 L468 27 C376 33 368 42 368 122 L368 194 C368 293 402 401 461 492 C512 572 576 611 629 611 C634 611 636 611 642 610 L648 625 Z " />
<glyph glyph-name="Phi" unicode="&#x3a6;" horiz-adv-x="754" d="M488 658 L270 658 L270 630 C328 626 335 619 335 579 C217 574 44 509 44 330 C44 147 221 88 335 86 C335 38 328 32 265 28 L265 0 L488 0 L488 28 C425 32 418 38 418 86 C534 88 710 153 710 337 C710 517 538 575 418 579 C418 619 425 625 488 630 L488 658 Z M335 118 C249 124 136 180 136 337 C136 490 251 543 335 547 L335 118 Z M418 547 C502 543 618 491 618 333 C618 175 503 124 418 118 L418 547 Z " />
<glyph glyph-name="Chi" unicode="&#x3a7;" horiz-adv-x="654" d="M655 0 L655 28 C585 35 563 50 517 120 C469 194 414 280 360 366 C427 469 460 516 481 545 C526 604 545 614 619 622 L619 650 L391 650 L391 622 C457 614 462 604 438 560 C411 511 381 463 339 398 C295 466 258 523 225 580 C210 606 211 615 272 622 L272 650 L26 650 L26 622 C98 614 111 603 154 538 C189 482 235 408 288 324 C200 188 149 116 124 85 C95 47 64 34 7 28 L7 0 L236 0 L236 28 C169 36 164 46 188 89 C220 148 261 217 310 291 C372 193 417 118 442 77 C461 44 454 35 392 28 L392 0 L655 0 Z " />
<glyph glyph-name="Psi" unicode="&#x3a8;" horiz-adv-x="725" d="M699 659 C666 654 622 640 595 610 C579 591 569 572 562 530 L552 472 C530 342 504 307 403 302 L403 529 C403 604 411 617 483 622 L483 650 L238 650 L238 622 C310 617 318 604 318 529 L318 302 C232 308 194 347 172 471 L161 531 C153 573 145 591 131 609 C103 643 59 654 25 659 L15 632 C62 611 63 583 73 524 L85 452 C97 383 116 347 155 316 C199 282 255 269 318 267 L318 122 C318 46 310 33 233 28 L233 0 L489 0 L489 28 C412 33 403 46 403 122 L403 267 C470 269 518 283 559 315 C599 346 618 378 632 450 L646 519 C658 580 665 608 709 632 L699 659 Z " />
<glyph glyph-name="uni03A9" unicode="&#x3a9;" horiz-adv-x="757" d="M719 146 L691 147 C666 77 657 72 612 72 L528 72 C572 125 688 224 688 364 C688 546 558 665 384 665 C212 665 77 541 77 361 C77 221 188 124 239 72 L150 72 C110 72 97 81 73 147 L46 146 L63 0 L307 0 L314 19 C284 71 178 203 178 360 C178 529 256 631 383 631 C509 631 588 523 588 363 C588 197 485 68 453 18 L458 0 L701 0 L719 146 Z " />
<glyph glyph-name="Iotadieresis" unicode="&#x3aa;" horiz-adv-x="341" d="M303 0 L303 28 C221 34 213 39 213 125 L213 525 C213 610 221 616 303 622 L303 650 L38 650 L38 622 C120 616 128 610 128 525 L128 125 C128 40 120 34 38 28 L38 0 L303 0 Z M266 795 C241 795 219 773 219 745 C219 719 241 697 266 697 C293 697 314 719 314 745 C314 773 293 795 267 795 L266 795 Z M75 795 C50 795 28 773 28 745 C28 719 50 697 75 697 C102 697 123 719 123 745 C123 773 102 795 76 795 L75 795 Z " />
<glyph glyph-name="Upsilondieresis" unicode="&#x3ab;" horiz-adv-x="655" d="M648 625 C638 644 619 665 597 665 C518 665 445 585 404 489 C377 436 359 379 345 309 L340 309 C335 366 324 448 296 515 C263 599 214 665 123 665 C83 665 33 649 1 632 L6 606 C19 609 32 609 44 609 C124 609 186 567 230 473 C270 390 283 308 283 200 L283 122 C283 42 274 33 184 27 L184 0 L468 0 L468 27 C376 33 368 42 368 122 L368 194 C368 293 402 401 461 492 C512 572 576 611 629 611 C634 611 636 611 642 610 L648 625 Z M439 795 C414 795 392 773 392 745 C392 719 414 697 439 697 C466 697 487 719 487 745 C487 773 466 795 440 795 L439 795 Z M248 795 C223 795 201 773 201 745 C201 719 223 697 248 697 C275 697 296 719 296 745 C296 773 275 795 249 795 L248 795 Z " />
<glyph glyph-name="alphatonos" unicode="&#x3ac;" horiz-adv-x="523" d="M506 73 C494 64 480 58 467 58 C442 58 416 97 416 201 C417 305 438 413 448 440 L433 448 C413 438 386 420 370 405 C365 388 361 368 358 347 L355 347 C331 416 287 450 249 450 C222 450 181 431 142 400 C84 355 36 281 36 192 C36 77 115 -12 197 -12 C243 -12 307 30 346 109 L348 110 C358 15 394 -12 429 -12 C460 -12 493 5 517 50 L506 73 Z M219 396 C288 396 341 320 341 240 L341 214 C341 135 286 54 225 54 C177 54 119 123 119 226 C119 315 158 396 218 396 L219 396 Z M327 665 L323 674 C311 677 256 669 248 660 C247 629 236 543 232 496 L260 495 L327 665 Z " />
<glyph glyph-name="epsilontonos" unicode="&#x3ad;" horiz-adv-x="403" d="M371 117 C334 74 294 50 238 50 C177 50 127 86 127 145 C127 185 157 214 223 214 C244 214 260 212 272 211 L298 260 L294 268 C277 266 253 265 230 265 C173 265 141 298 141 337 C141 382 174 416 221 416 C263 416 287 392 300 348 C303 337 310 333 322 333 C346 333 363 353 363 372 C363 406 324 448 229 448 C131 448 57 399 57 329 C57 278 93 246 149 235 L149 233 C101 215 39 191 39 123 C39 37 115 -12 208 -12 C293 -12 353 30 391 96 L371 117 Z M283 665 L279 674 C267 677 212 669 204 660 C203 629 192 543 188 496 L216 495 L283 665 Z " />
<glyph glyph-name="etatonos" unicode="&#x3ae;" horiz-adv-x="509" d="M440 -250 C439 -197 436 -33 436 158 L436 287 C435 394 390 448 311 448 C285 448 258 435 231 417 C205 400 185 384 166 371 C166 401 159 436 149 448 C113 444 39 419 27 411 L27 388 C82 378 87 376 87 315 L87 138 C87 86 86 35 83 -11 C111 -7 139 -3 166 0 L166 335 C184 352 230 387 273 387 C337 387 360 337 360 268 C360 104 356 -59 354 -224 C370 -237 410 -256 434 -258 L440 -250 Z M325 666 L321 675 C309 678 254 670 246 661 C245 630 234 544 230 497 L258 496 L325 666 Z " />
<glyph glyph-name="iotatonos" unicode="&#x3af;" horiz-adv-x="245" d="M230 57 C217 52 203 49 189 49 C168 49 150 61 150 116 L150 449 L71 430 L71 85 C71 8 112 -12 140 -12 C177 -12 212 13 237 31 L230 57 Z M185 665 L181 674 C169 677 114 669 106 660 C105 629 94 543 90 496 L118 495 L185 665 Z " />
<glyph glyph-name="upsilondieresistonos" unicode="&#x3b0;" horiz-adv-x="481" d="M293 423 C330 401 372 343 372 241 C372 95 329 48 260 48 C214 48 171 83 171 152 C171 205 172 280 172 344 C172 414 148 448 112 448 C79 448 32 421 7 405 L16 379 C27 383 40 386 55 386 C78 386 92 369 92 316 C92 258 91 191 91 137 C91 34 153 -12 229 -12 C335 -12 441 114 441 272 C441 391 377 448 346 448 C327 448 298 437 293 431 L293 423 Z M342 522 C366 522 385 540 385 567 C385 592 366 613 342 613 C313 613 295 592 295 567 C295 540 313 522 341 522 L342 522 Z M306 668 L303 676 C294 677 239 670 227 665 C214 615 199 559 184 501 L212 495 L306 668 Z M125 522 C150 522 169 540 169 567 C169 592 150 613 125 613 C99 613 80 592 80 567 C80 540 99 522 124 522 L125 522 Z " />
<glyph glyph-name="alpha" unicode="&#x3b1;" horiz-adv-x="523" d="M506 73 C494 64 480 58 467 58 C442 58 416 97 416 201 C417 305 438 413 448 440 L433 448 C413 438 386 420 370 405 C365 388 361 368 358 347 L355 347 C331 416 287 450 249 450 C222 450 181 431 142 400 C84 355 36 281 36 192 C36 77 115 -12 197 -12 C243 -12 307 30 346 109 L348 110 C358 15 394 -12 429 -12 C460 -12 493 5 517 50 L506 73 Z M219 396 C288 396 341 320 341 240 C341 231 341 224 341 214 C341 135 286 54 225 54 C177 54 119 123 119 226 C119 315 158 396 218 396 L219 396 Z " />
<glyph glyph-name="beta" unicode="&#x3b2;" horiz-adv-x="510" d="M71 -218 C83 -237 125 -258 151 -258 L160 -250 C158 -206 151 -68 149 31 C177 4 204 -15 234 -15 C307 -15 473 73 473 224 C473 277 456 322 418 355 C392 376 356 393 316 401 C361 433 421 476 421 558 C421 648 364 712 276 712 C229 712 181 690 139 641 C91 585 71 509 71 369 L71 -218 Z M213 353 C221 354 230 354 236 354 C320 354 390 292 390 191 C390 83 346 42 259 42 C228 42 191 50 150 78 C146 176 146 301 146 394 C146 530 145 666 240 666 C301 666 345 611 345 533 C345 475 321 440 294 420 C279 409 257 404 229 403 L213 353 Z " />
<glyph glyph-name="gamma" unicode="&#x3b3;" horiz-adv-x="495" d="M288 56 C278 136 264 232 225 332 C194 413 162 448 134 448 C103 448 45 422 17 403 L23 378 C84 390 102 378 131 332 C199 227 234 58 237 -17 C231 -65 207 -201 204 -246 L219 -258 C246 -254 292 -232 307 -216 C307 -170 298 -66 296 -14 C302 4 326 58 347 97 C426 243 463 323 463 391 C463 423 454 451 433 451 C419 451 396 437 383 424 C379 419 378 414 379 410 C386 396 392 374 392 353 C392 271 329 130 291 56 L288 56 Z " />
<glyph glyph-name="delta" unicode="&#x3b4;" horiz-adv-x="497" d="M448 586 C433 636 373 713 273 712 C203 711 134 652 134 593 C134 555 164 515 233 443 C112 404 37 329 37 210 C37 100 112 -12 246 -12 C350 -12 460 71 460 217 C460 328 409 395 301 492 C227 562 188 614 188 631 C188 646 200 658 238 658 C296 658 366 629 437 565 L448 586 Z M375 197 C375 72 321 22 259 22 C189 22 130 108 130 222 C130 324 171 395 256 421 C303 378 375 305 375 198 L375 197 Z " />
<glyph glyph-name="epsilon" unicode="&#x3b5;" horiz-adv-x="403" d="M371 117 C334 74 294 50 238 50 C177 50 127 86 127 145 C127 185 157 214 223 214 C244 214 260 212 272 211 L298 260 L294 268 C277 266 253 265 230 265 C173 265 141 298 141 337 C141 382 174 416 221 416 C263 416 287 392 300 348 C303 337 310 333 322 333 C346 333 363 353 363 372 C363 406 324 448 229 448 C131 448 57 399 57 329 C57 278 93 246 149 235 L149 233 C101 215 39 191 39 123 C39 37 115 -12 208 -12 C293 -12 353 30 391 96 L371 117 Z " />
<glyph glyph-name="zeta" unicode="&#x3b6;" horiz-adv-x="381" d="M131 736 C102 718 87 691 87 673 C88 634 144 601 209 596 C114 503 38 367 38 222 C38 98 85 37 165 15 C185 10 203 4 222 -1 C273 -13 290 -35 290 -70 C290 -99 276 -131 265 -154 L290 -171 C301 -159 360 -100 360 -29 C360 34 315 58 263 72 C248 76 230 81 213 85 C147 104 120 157 120 252 C120 400 183 521 253 594 C280 596 307 604 332 616 C356 629 373 654 373 684 C373 693 368 697 355 697 C325 697 276 665 238 631 C191 634 145 675 146 732 L131 736 Z " />
<glyph glyph-name="eta" unicode="&#x3b7;" horiz-adv-x="509" d="M440 -250 C439 -197 436 -33 436 158 L436 287 C435 394 390 448 311 448 C285 448 258 435 231 417 C205 400 185 384 166 371 C166 401 159 436 149 448 C113 444 39 419 27 411 L27 388 C82 378 87 376 87 315 L87 138 C87 86 86 35 83 -11 C111 -7 139 -3 166 0 L166 335 C184 352 230 387 273 387 C337 387 360 337 360 268 C360 104 356 -59 354 -224 C370 -237 410 -256 434 -258 L440 -250 Z " />
<glyph glyph-name="theta" unicode="&#x3b8;" horiz-adv-x="490" d="M452 359 C452 545 387 712 248 712 C114 712 37 545 37 349 C37 155 104 -12 239 -12 C386 -12 452 155 452 358 L452 359 Z M124 390 C126 539 173 678 245 678 C324 678 361 534 364 390 L124 390 Z M365 341 C364 162 328 22 249 22 C175 22 125 163 123 341 L365 341 Z " />
<glyph glyph-name="iota" unicode="&#x3b9;" horiz-adv-x="245" d="M230 57 C217 52 203 49 189 49 C168 49 150 61 150 116 L150 449 L71 430 L71 85 C71 8 112 -12 140 -12 C177 -12 212 13 237 31 L230 57 Z " />
<glyph glyph-name="kappa" unicode="&#x3ba;" horiz-adv-x="493" d="M480 58 C469 52 458 48 443 48 C425 48 402 59 368 105 C325 163 274 244 259 275 C296 319 349 374 387 374 C401 374 414 369 422 365 C428 361 432 361 437 365 C446 373 455 389 455 406 C455 426 439 448 411 448 C385 448 358 432 305 378 C268 339 185 238 165 209 L165 356 C165 406 161 438 152 447 C117 444 38 418 26 411 L26 389 C83 379 86 376 86 331 L86 141 C86 84 85 32 82 -11 C111 -7 138 -3 165 0 L165 164 C183 190 196 203 204 212 C243 148 274 97 304 56 C344 1 372 -12 398 -12 C424 -12 459 -2 485 30 L480 58 Z " />
<glyph glyph-name="lambda" unicode="&#x3bb;" horiz-adv-x="493" d="M474 53 C463 48 450 46 441 46 C421 46 402 58 379 123 C334 248 293 386 265 486 C213 675 168 713 121 713 C91 713 55 697 25 671 L33 648 C44 653 60 657 73 657 C111 658 137 629 169 534 C180 504 189 468 201 428 C149 271 74 109 15 0 L22 -12 L92 9 C121 71 184 242 219 363 C240 290 263 214 294 116 C324 22 348 -12 390 -12 C424 -12 462 6 483 30 L474 53 Z " />
<glyph glyph-name="uni03BC" unicode="&#x3bc;" horiz-adv-x="512" d="M498 54 C489 49 475 44 463 44 C442 44 422 59 422 114 L422 448 L342 430 L342 103 C323 80 285 50 242 50 C202 50 151 77 151 172 L151 343 C151 380 151 425 149 448 L68 430 C70 406 71 369 71 334 L71 41 C71 -64 68 -201 73 -218 C88 -233 126 -255 148 -257 L161 -245 C146 -205 123 -65 124 14 L124 30 L128 30 C144 7 173 -12 209 -12 C261 -12 304 22 343 66 L345 66 C351 20 381 -12 423 -12 C457 -12 492 8 508 28 L498 54 Z " />
<glyph glyph-name="nu" unicode="&#x3bd;" horiz-adv-x="476" d="M25 377 C39 381 49 382 64 382 C87 382 105 366 129 305 C154 240 198 114 237 -12 L262 -12 L321 96 C386 214 445 312 445 380 C445 413 427 448 402 448 C386 448 368 436 360 421 C355 413 355 406 359 401 C370 386 377 366 377 339 C377 265 318 158 283 95 C259 169 224 280 198 353 C170 428 150 448 126 448 C99 448 51 425 18 403 L25 377 Z " />
<glyph glyph-name="xi" unicode="&#x3be;" horiz-adv-x="404" d="M349 396 L343 408 C324 406 292 403 269 403 C182 403 153 458 153 500 C153 549 179 587 214 609 C255 606 298 613 321 620 C338 627 357 644 364 677 C364 687 361 693 345 693 C305 693 250 671 208 646 C161 650 121 689 119 735 L104 738 C86 725 69 701 69 679 C70 650 118 619 171 614 C106 572 80 520 80 469 C80 416 116 371 166 358 C71 303 38 233 38 174 C38 84 86 33 189 10 C211 6 230 1 251 -4 C297 -16 316 -38 316 -71 C316 -101 302 -133 290 -155 L316 -170 C326 -161 384 -102 385 -33 C385 37 326 59 284 69 C263 74 245 78 232 81 C148 101 118 145 118 208 C118 297 179 346 255 346 C280 346 297 344 312 342 L349 396 Z " />
<glyph glyph-name="omicron" unicode="&#x3bf;" horiz-adv-x="510" d="M256 448 C165 448 37 373 37 208 C37 98 119 -12 256 -12 C355 -12 473 64 473 225 C473 348 381 448 257 448 L256 448 Z M245 415 C333 415 380 320 380 204 C380 66 329 21 267 21 C184 21 130 114 130 240 C130 353 184 415 244 415 L245 415 Z " />
<glyph glyph-name="pi" unicode="&#x3c0;" horiz-adv-x="531" d="M485 466 C472 440 463 436 435 436 C357 436 261 438 192 438 C85 440 40 390 17 362 L33 338 C64 363 101 375 161 374 C161 269 142 95 82 6 L90 -12 C107 -11 127 -6 154 6 C164 19 207 112 207 353 L207 373 C248 373 291 373 346 372 C342 287 338 206 338 113 C338 15 373 -12 411 -12 C445 -12 481 12 502 44 L491 64 C478 58 462 54 449 54 C426 54 409 78 409 146 C408 219 408 299 413 370 C433 370 474 370 489 374 C498 392 507 421 513 459 L485 466 Z " />
<glyph glyph-name="rho" unicode="&#x3c1;" horiz-adv-x="501" d="M75 -257 C100 -255 147 -235 155 -215 C157 -175 151 -31 151 25 C171 3 203 -12 230 -12 C317 -10 464 89 464 247 C464 350 401 448 284 448 C253 448 206 434 164 401 C86 342 71 269 71 187 C70 115 72 -3 73 -107 C74 -172 74 -223 68 -247 L75 -257 Z M382 213 C382 80 320 40 252 40 C217 40 176 59 151 82 C149 121 149 176 149 221 C149 325 166 398 243 398 C330 398 382 311 382 214 L382 213 Z " />
<glyph glyph-name="uni03C2" unicode="&#x3c2;" horiz-adv-x="403" d="M302 -160 C329 -138 376 -87 376 -29 C376 36 329 59 272 72 C252 77 237 81 223 84 C152 101 112 148 112 239 C112 332 155 393 230 393 C262 393 293 382 322 359 C332 352 337 349 343 349 C357 349 380 373 381 394 C381 407 376 418 363 427 C345 439 321 448 282 448 C230 448 178 425 135 391 C79 346 37 284 37 199 C37 106 74 41 174 13 C188 10 204 6 220 3 C283 -11 306 -29 306 -62 C306 -83 298 -113 277 -141 L302 -160 Z " />
<glyph glyph-name="sigma" unicode="&#x3c3;" horiz-adv-x="515" d="M280 446 C140 447 37 354 37 211 C37 93 111 -12 247 -12 C347 -12 450 69 450 219 C450 281 423 347 356 385 L358 387 C396 383 441 377 480 377 C495 386 509 423 517 453 L492 467 C474 445 454 442 435 442 C395 442 342 446 281 446 L280 446 Z M258 394 C283 394 312 383 333 349 C356 313 368 266 368 210 C368 72 317 22 254 22 C179 22 127 108 127 215 C127 336 187 394 257 394 L258 394 Z " />
<glyph glyph-name="tau" unicode="&#x3c4;" horiz-adv-x="446" d="M402 465 C389 438 375 435 347 436 C286 436 236 438 180 438 C86 438 38 392 15 362 L30 339 C76 371 123 376 196 375 C191 289 187 204 187 109 C187 14 220 -12 266 -12 C303 -12 343 13 364 40 L353 64 C339 58 322 55 308 55 C282 55 259 75 259 148 C258 219 258 296 263 372 C285 372 309 371 332 370 C358 370 394 370 407 374 C414 388 424 420 430 461 L402 465 Z " />
<glyph glyph-name="upsilon" unicode="&#x3c5;" horiz-adv-x="481" d="M293 423 C330 401 372 343 372 241 C372 95 329 48 260 48 C214 48 171 83 171 152 C171 205 172 280 172 344 C172 414 148 448 112 448 C79 448 32 421 7 405 L16 379 C27 383 40 386 55 386 C78 386 92 369 92 316 C92 258 91 191 91 137 C91 34 153 -12 229 -12 C335 -12 441 114 441 272 C441 391 377 448 346 448 C327 448 298 437 293 431 L293 423 Z " />
<glyph glyph-name="phi" unicode="&#x3c6;" horiz-adv-x="587" d="M232 459 C137 420 36 352 36 217 C36 89 123 -3 258 -10 C258 -136 258 -210 255 -252 L261 -257 C288 -256 326 -235 336 -215 C335 -107 333 -54 333 -5 C449 13 550 101 550 244 C550 373 467 448 392 448 C330 448 259 398 257 267 C257 203 257 127 259 40 C193 55 124 120 124 237 C124 352 189 399 246 430 L232 459 Z M372 405 C415 405 475 345 475 227 C475 100 403 40 333 36 C330 135 331 228 331 302 C330 386 342 405 371 405 L372 405 Z " />
<glyph glyph-name="chi" unicode="&#x3c7;" horiz-adv-x="467" d="M486 -195 C438 -208 413 -187 384 -120 C361 -68 318 46 283 144 C355 280 420 393 450 437 L443 448 L372 425 C355 391 311 293 263 196 C244 247 219 320 199 365 C178 415 152 448 118 448 C89 448 49 427 17 399 L25 374 C41 381 56 384 71 384 C95 384 112 369 136 311 C159 258 188 179 212 112 C152 -2 70 -153 35 -221 C38 -245 57 -265 75 -272 L86 -270 C124 -179 174 -65 231 59 C265 -38 287 -102 312 -160 C344 -238 373 -258 409 -258 C434 -258 465 -247 494 -224 L486 -195 Z " />
<glyph glyph-name="psi" unicode="&#x3c8;" horiz-adv-x="605" d="M581 448 C535 435 505 409 486 388 C473 374 470 349 466 306 C460 261 454 196 447 151 C436 91 414 41 348 32 L354 517 L343 522 L286 489 L293 34 C236 42 192 85 181 208 C176 264 172 300 169 338 C162 403 141 448 99 448 C70 448 33 428 7 405 L15 377 C24 380 33 381 43 381 C61 381 76 369 86 307 C93 258 97 218 106 160 C126 34 194 -8 290 -11 L291 -142 C293 -243 313 -254 334 -257 L343 -251 L347 -6 C367 -4 395 6 416 19 C452 43 485 78 504 156 C520 224 531 283 540 322 C550 370 560 395 592 421 L581 448 Z " />
<glyph glyph-name="omega" unicode="&#x3c9;" horiz-adv-x="645" d="M447 418 C487 397 536 337 536 225 C536 77 487 50 442 50 C387 50 362 103 363 157 C364 217 374 294 376 349 L369 355 L286 336 C290 293 297 217 298 156 C299 106 279 52 226 52 C176 52 124 124 124 234 C124 312 150 377 205 430 L187 454 C90 393 39 314 39 202 C39 74 111 -12 190 -12 C231 -12 277 27 303 63 C319 28 348 -12 408 -12 C480 -12 606 90 606 263 C606 382 532 448 497 448 C478 448 453 437 448 432 L447 418 Z " />
<glyph glyph-name="iotadieresis" unicode="&#x3ca;" horiz-adv-x="245" d="M230 57 C217 52 203 49 189 49 C168 49 150 61 150 116 L150 449 L71 430 L71 85 C71 8 112 -12 140 -12 C177 -12 212 13 237 31 L230 57 Z M31 620 C6 620 -16 598 -16 570 C-16 544 6 522 31 522 C58 522 79 544 79 570 C79 598 58 620 32 620 L31 620 Z M200 620 C175 620 153 598 153 570 C153 544 175 522 200 522 C227 522 248 544 248 570 C248 598 227 620 201 620 L200 620 Z " />
<glyph glyph-name="upsilondieresis" unicode="&#x3cb;" horiz-adv-x="481" d="M293 423 C330 401 372 343 372 241 C372 95 329 48 260 48 C214 48 171 83 171 152 C171 205 172 280 172 344 C172 414 148 448 112 448 C79 448 32 421 7 405 L16 379 C27 383 40 386 55 386 C78 386 92 369 92 316 C92 258 91 191 91 137 C91 34 153 -12 229 -12 C335 -12 441 114 441 272 C441 391 377 448 346 448 C327 448 298 437 293 431 L293 423 Z M154 620 C129 620 107 598 107 570 C107 544 129 522 154 522 C181 522 202 544 202 570 C202 598 181 620 155 620 L154 620 Z M323 620 C298 620 276 598 276 570 C276 544 298 522 323 522 C350 522 371 544 371 570 C371 598 350 620 324 620 L323 620 Z " />
<glyph glyph-name="omicrontonos" unicode="&#x3cc;" horiz-adv-x="510" d="M256 448 C165 448 37 373 37 208 C37 98 119 -12 256 -12 C355 -12 473 64 473 225 C473 348 381 448 257 448 L256 448 Z M245 415 C333 415 380 320 380 204 C380 66 329 21 267 21 C184 21 130 114 130 240 C130 353 184 415 244 415 L245 415 Z M326 665 L322 674 C310 677 255 669 247 660 C246 629 235 543 231 496 L259 495 L326 665 Z " />
<glyph glyph-name="upsilontonos" unicode="&#x3cd;" horiz-adv-x="481" d="M293 423 C330 401 372 343 372 241 C372 95 329 48 260 48 C214 48 171 83 171 152 C171 205 172 280 172 344 C172 414 148 448 112 448 C79 448 32 421 7 405 L16 379 C27 383 40 386 55 386 C78 386 92 369 92 316 C92 258 91 191 91 137 C91 34 153 -12 229 -12 C335 -12 441 114 441 272 C441 391 377 448 346 448 C327 448 298 437 293 431 L293 423 Z M311 663 L307 672 C295 675 240 667 232 658 C231 627 220 541 216 494 L244 493 L311 663 Z " />
<glyph glyph-name="omegatonos" unicode="&#x3ce;" horiz-adv-x="645" d="M447 418 C487 397 536 337 536 225 C536 77 487 50 442 50 C387 50 362 103 363 157 C364 217 374 294 376 349 L369 355 L286 336 C290 293 297 217 298 156 C299 106 279 52 226 52 C176 52 124 124 124 234 C124 312 150 377 205 430 L187 454 C90 393 39 314 39 202 C39 74 111 -12 190 -12 C231 -12 277 27 303 63 C319 28 348 -12 408 -12 C480 -12 606 90 606 263 C606 382 532 448 497 448 C478 448 453 437 448 432 L447 418 Z M412 663 L408 672 C396 675 341 667 333 658 C332 627 321 541 317 494 L345 493 L412 663 Z " />
<glyph glyph-name="uni03D0" unicode="&#x3d0;" horiz-adv-x="497" d="M460 221 C460 328 412 410 286 425 C361 465 423 506 424 586 C425 670 368 712 299 712 C248 712 196 685 154 639 C99 581 39 471 39 299 C39 150 86 -12 255 -12 C345 -12 460 67 460 220 L460 221 Z M348 572 C347 506 291 463 237 434 C194 411 155 393 126 377 C129 464 154 669 270 669 C319 669 349 624 348 572 L348 572 Z M371 200 C371 90 330 24 262 24 C171 24 123 170 125 338 C158 363 200 384 238 384 C312 384 371 320 371 201 L371 200 Z " />
<glyph glyph-name="uni03D1" unicode="&#x3d1;" horiz-adv-x="496" d="M23 232 C69 239 87 233 93 171 C96 151 100 133 104 115 C120 30 162 -12 237 -12 C274 -12 312 6 342 33 C437 115 462 260 461 376 C459 624 355 713 256 713 C162 713 62 634 62 508 C62 414 125 328 246 328 C289 328 340 353 383 384 C384 363 385 330 385 306 C384 121 336 43 265 43 C220 43 191 83 182 144 C179 161 176 179 174 195 C167 247 154 294 107 294 C71 294 30 268 17 255 L23 232 Z M223 671 C311 671 367 561 381 417 C343 391 310 384 275 384 C190 384 133 459 133 545 C133 625 168 671 222 671 L223 671 Z " />
</font>
</svg>
